<?xml version="1.0" standalone="no"?>
<!DOCTYPE svg PUBLIC "-//W3C//DTD SVG 1.1//EN" "http://www.w3.org/Graphics/SVG/1.1/DTD/svg11.dtd" >
<svg xmlns="http://www.w3.org/2000/svg">
<metadata></metadata>
<defs>
<font id="encode_sans_condensedXBd" horiz-adv-x="1204" >
<font-face units-per-em="2048" ascent="1638" descent="-410" />
<missing-glyph horiz-adv-x="372" />
<glyph unicode="&#xfb01;" horiz-adv-x="1402" d="M27 803v303h180v51q0 141 32.5 237.5t106.5 157t195 88t297 31.5l20 -268q-84 -4 -140 -16.5t-90 -38t-47.5 -65.5t-13.5 -101v-76h248v-303h-248v-803h-362v803h-178zM924 1440q0 100 46 145t150 45t151.5 -46t47.5 -144q0 -100 -46.5 -146.5t-152.5 -46.5 q-104 0 -150 44t-46 149zM940 0v1106h360v-1106h-360z" />
<glyph unicode="&#xfb02;" horiz-adv-x="1402" d="M27 803v303h180v51q0 141 32.5 237.5t106.5 157t195 88t297 31.5l20 -268q-84 -4 -140 -16.5t-90 -38t-47.5 -65.5t-13.5 -101v-76h248v-303h-248v-803h-362v803h-178zM938 0v1655h362v-1655h-362z" />
<glyph unicode="&#xfb03;" horiz-adv-x="2185" d="M27 803v303h180v51q0 141 32.5 237.5t106.5 157t195 88t297 31.5l20 -268q-84 -4 -140 -16.5t-90 -38t-47.5 -65.5t-13.5 -101v-76h424v51q0 141 33 237.5t106.5 157t194.5 88t297 31.5l20 -268q-84 -4 -140 -16.5t-90 -38t-47 -65.5t-13 -101v-76h247v-303h-247v-803 h-363v803h-422v-803h-362v803h-178zM1706 1440q0 100 46 145t151 45q104 0 151 -46t47 -144q0 -100 -46 -146.5t-152 -46.5q-104 0 -150.5 44t-46.5 149zM1722 0v1106h361v-1106h-361z" />
<glyph unicode="&#xfb04;" horiz-adv-x="2185" d="M27 803v303h180v51q0 141 32.5 237.5t106.5 157t195 88t297 31.5l20 -268q-84 -4 -140 -16.5t-90 -38t-47.5 -65.5t-13.5 -101v-76h424v51q0 141 33 237.5t106.5 157t194.5 88t297 31.5l20 -268q-84 -4 -140 -16.5t-90 -38t-47 -65.5t-13 -101v-76h247v-303h-247v-803 h-363v803h-422v-803h-362v803h-178zM1722 0v1655h363v-1655h-363z" />
<glyph horiz-adv-x="0" />
<glyph unicode="&#xd;" horiz-adv-x="571" />
<glyph horiz-adv-x="0" />
<glyph horiz-adv-x="0" />
<glyph unicode=" "  horiz-adv-x="372" />
<glyph unicode="&#x09;" horiz-adv-x="372" />
<glyph unicode="&#xa0;" horiz-adv-x="372" />
<glyph unicode="!" horiz-adv-x="583" d="M98 168q0 90 51.5 138t143.5 48t144 -48t52 -138q0 -88 -52 -136t-144 -48t-143.5 48t-51.5 136zM104 1495v21h377v-21l-75 -942v-23h-224v23z" />
<glyph unicode="&#x22;" horiz-adv-x="872" d="M94 983v672h285v-8l-90 -664h-195zM535 983v672h284v-8l-90 -664h-194z" />
<glyph unicode="#" horiz-adv-x="1163" d="M74 397v224h162l22 274h-184v221h202l33 400h244l-33 -400h180l33 400h246l-33 -400h141v-221h-159l-23 -274h182v-224h-200l-31 -397h-246l31 397h-180l-31 -397h-244l31 397h-143zM479 621h180l23 274h-180z" />
<glyph unicode="$" horiz-adv-x="1161" d="M68 49v307q102 -35 221 -57.5t213 -22.5q119 0 174 38t55 116q0 41 -17.5 69.5t-50 49t-78.5 35t-104 26.5q-86 20 -159.5 52t-127 87.5t-84 138.5t-30.5 206q0 166 93 273.5t263 148.5v280h312v-264q68 -6 140.5 -17.5t155.5 -33.5l-10 -299q-43 12 -93 22t-99 18.5 t-95.5 12.5t-82.5 4q-205 0 -205 -141q0 -43 20.5 -74t56 -53.5t87 -40t112.5 -37.5q82 -27 150.5 -60.5t118 -85t77 -123t27.5 -173.5q0 -180 -91 -296t-261 -157v-279h-312v261q-90 8 -185 24t-191 45z" />
<glyph unicode="%" horiz-adv-x="2076" d="M53 1049q0 240 104.5 363.5t299.5 123.5q199 0 302 -124t103 -363q0 -242 -103 -364t-302 -122q-197 0 -300.5 123t-103.5 363zM319 1049q0 -141 32 -199.5t106 -58.5q76 0 107.5 57t31.5 201q0 143 -32 200.5t-107 57.5q-74 0 -106 -58.5t-32 -199.5zM594 0l592 1516 h297l-592 -1516h-297zM1217 463q0 242 103 364.5t300 122.5q199 0 302 -122.5t103 -364.5q0 -240 -103 -361.5t-302 -121.5q-197 0 -300 121.5t-103 361.5zM1481 463q0 -141 32.5 -198.5t106.5 -57.5q76 0 107.5 57.5t31.5 198.5q0 145 -32.5 202.5t-106.5 57.5 t-106.5 -59.5t-32.5 -200.5z" />
<glyph unicode="&#x26;" horiz-adv-x="1456" d="M70 420q0 145 74.5 246.5t205.5 140.5q-86 92 -121.5 174t-35.5 170q0 186 136 286.5t384 100.5q92 0 186 -14.5t199 -44.5l2 -11l-37 -266h-12q-74 29 -157 44.5t-149 15.5q-100 0 -146 -38t-46 -118q0 -78 83 -166t261 -197l98 -61v178l318 17v-175q0 -55 -5 -106 t-16 -98l174 -107v-12l-133 -289h-12l-162 111q-86 -106 -215 -162.5t-295 -56.5q-133 0 -240.5 30.5t-182 88t-115.5 138t-41 181.5zM434 444q0 -88 65.5 -141t174.5 -53q168 0 246 115l-154 106q-63 43 -116.5 82t-100.5 76q-115 -47 -115 -185z" />
<glyph unicode="'" horiz-adv-x="432" d="M94 983v672h285v-8l-90 -664h-195z" />
<glyph unicode="(" horiz-adv-x="684" d="M53 725q0 283 79 553t237 500h315v-9q-158 -229 -249 -496t-91 -548t91 -548t249 -496v-9h-315q-158 229 -237 499.5t-79 553.5z" />
<glyph unicode=")" horiz-adv-x="684" d="M0 -319q158 229 249 496t91 548t-91 548t-249 496v9h315q158 -229 236 -499.5t78 -553.5t-78 -553t-236 -500h-315v9z" />
<glyph unicode="*" horiz-adv-x="1011" d="M53 1305l66 206l145 -45l191 -123l-58 222v151h219v-151l-59 -222l191 123l143 45l67 -206l-143 -48l-223 -12l174 -141l90 -123l-178 -129l-90 123l-82 217l-84 -217l-90 -123l-176 129l90 123l172 141l-221 12z" />
<glyph unicode="+" horiz-adv-x="1052" d="M57 635v246h346v323h246v-323h348v-246h-348v-324h-246v324h-346z" />
<glyph unicode="," horiz-adv-x="550" d="M29 -297l88 655h364l-182 -675z" />
<glyph unicode="-" horiz-adv-x="913" d="M94 440v267h725v-267h-725z" />
<glyph unicode="." horiz-adv-x="534" d="M68 176q0 100 48 145.5t150 45.5q100 0 150.5 -45.5t50.5 -145.5t-49.5 -146t-151.5 -46q-100 0 -149 45t-49 147z" />
<glyph unicode="/" horiz-adv-x="782" d="M43 -246l385 1762h311l-385 -1762h-311z" />
<glyph unicode="0" horiz-adv-x="1333" d="M70 756q0 385 153.5 582.5t442.5 197.5q291 0 443.5 -196.5t152.5 -583.5q0 -385 -152.5 -580.5t-443.5 -195.5q-289 0 -442.5 196.5t-153.5 579.5zM440 756q0 -131 12.5 -221.5t40 -146.5t70 -81.5t103.5 -25.5t104 24.5t69.5 80.5t39 146.5t12.5 223.5t-12.5 224 t-39 148.5t-69.5 82t-104 24.5t-103.5 -25.5t-70 -82t-40 -148.5t-12.5 -223z" />
<glyph unicode="1" horiz-adv-x="890" d="M10 1210l6 37l449 269h278v-1516h-370v1120h-8l-269 -94h-35z" />
<glyph unicode="2" horiz-adv-x="1128" d="M63 0v256q0 100 26 178t75 140.5t121.5 114.5t169.5 104q121 66 174 125t53 145q0 92 -57.5 132t-188.5 40q-72 0 -154.5 -13.5t-154.5 -31.5l-29 291q260 55 445 55q510 0 510 -430q0 -172 -88 -292t-250 -218q-76 -47 -126 -80t-80 -58.5t-42 -49t-12 -54.5v-53h589 v-301h-981z" />
<glyph unicode="3" horiz-adv-x="1067" d="M76 1503q72 16 160 25.5t165 9.5q287 0 423.5 -94t136.5 -293q0 -295 -261 -365v-10q143 -29 222 -124t79 -236q0 -209 -153 -320.5t-440 -115.5q-86 0 -172 7t-158 21v277h10q43 -14 117 -23.5t139 -9.5q158 0 220.5 43t62.5 149q0 55 -14.5 93t-48.5 62t-92 34t-144 10 h-92v254h90q78 0 128 8t79.5 29.5t41 56.5t11.5 88q0 98 -50.5 138t-173.5 40q-53 0 -122.5 -8t-151.5 -22h-10z" />
<glyph unicode="4" horiz-adv-x="1234" d="M18 520v12l488 1004h8l363 -25l16 -18l-504 -915v-9h291l78 381h270v-381h172v-272h-172v-297h-369v297h-604z" />
<glyph unicode="5" horiz-adv-x="1069" d="M80 8v291h78q117 -25 213 -25q139 0 206.5 44t67.5 149q0 57 -19.5 96t-64.5 61.5t-119.5 33t-185.5 10.5h-145l-19 16l58 832h772v-299h-494l-18 -289q158 -2 273.5 -29t190 -82t111.5 -143t37 -211t-45 -214t-127 -152.5t-194.5 -91.5t-247.5 -30q-72 0 -151 8.5 t-177 24.5z" />
<glyph unicode="6" horiz-adv-x="1255" d="M70 684q0 424 188 638t561 214q141 0 305 -39l-43 -278q-152 33 -247 32q-184 0 -278.5 -89t-119.5 -294q55 47 131 74t168 27q109 0 196 -32t148.5 -92.5t95 -144.5t33.5 -188q0 -123 -39 -222.5t-111.5 -168t-177 -105t-235.5 -36.5q-279 0 -427 180t-148 524zM428 627 q6 -190 58.5 -274.5t158.5 -84.5q197 0 197 234q0 111 -47.5 163t-149.5 52q-61 0 -120.5 -25.5t-96.5 -64.5z" />
<glyph unicode="7" horiz-adv-x="1009" d="M29 1477l47 39h872l45 -207v-47l-446 -1258l-70 -47l-309 43v41l444 1165h-575z" />
<glyph unicode="8" horiz-adv-x="1234" d="M68 379q0 135 57 227t168 156q-80 53 -131 137t-51 229q0 92 36.5 167t104 128.5t162 82t211.5 28.5q115 0 208 -28.5t158.5 -82t101 -128t35.5 -167.5q0 -115 -39.5 -189.5t-140.5 -135.5q92 -47 154.5 -133t62.5 -238q0 -207 -138.5 -324.5t-408.5 -117.5 q-274 0 -412 102.5t-138 286.5zM410 428q0 -98 55 -149.5t153 -51.5t151.5 44t53.5 130q0 57 -21.5 96.5t-58 68t-87 50t-107.5 39.5q-61 -43 -100 -97t-39 -130zM434 1106q0 -47 19.5 -80t54.5 -57.5t82 -42t100 -33.5q57 43 85 97t28 128q0 86 -48 129t-137 43 q-86 0 -135 -47t-49 -137z" />
<glyph unicode="9" horiz-adv-x="1255" d="M47 1004q0 123 39 222t111.5 167.5t177 105.5t235.5 37q279 0 427.5 -180t148.5 -525q0 -424 -188.5 -637.5t-561.5 -213.5q-141 0 -305 38l43 279q152 -33 248 -33q184 0 278.5 88t118.5 295q-55 -47 -131 -73.5t-168 -26.5q-109 0 -195.5 31.5t-148 92t-95.5 144.5 t-34 189zM414 1014q0 -111 47 -163t149 -52q61 0 121 25.5t96 64.5q-6 190 -58 274t-159 84q-197 0 -196 -233z" />
<glyph unicode=":" horiz-adv-x="569" d="M86 176q0 100 48 145.5t151 45.5q100 0 150 -45.5t50 -145.5t-49 -146t-151 -46q-100 0 -149.5 45t-49.5 147zM86 934q0 100 48 145t151 45q100 0 150 -45t50 -145t-49 -146.5t-151 -46.5q-100 0 -149.5 45t-49.5 148z" />
<glyph unicode=";" horiz-adv-x="583" d="M39 -297l88 655h365l-183 -675zM104 934q0 100 48.5 145t150.5 45q100 0 150.5 -45t50.5 -145t-49.5 -146.5t-151.5 -46.5q-100 0 -149.5 45t-49.5 148z" />
<glyph unicode="&#x3c;" horiz-adv-x="1120" d="M57 625v239l955 414v-270l-611 -265l611 -262v-268z" />
<glyph unicode="=" horiz-adv-x="1089" d="M100 362v252h887v-252h-887zM100 815v252h887v-252h-887z" />
<glyph unicode="&#x3e;" horiz-adv-x="1120" d="M109 213v268l610 262l-610 265v270l954 -414v-239z" />
<glyph unicode="?" horiz-adv-x="915" d="M57 1487q160 43 330 43q223 0 351 -101.5t128 -302.5q0 -174 -100 -276t-268 -135l-17 -205v-31h-227v29l-31 364q141 29 217 77t76 141q0 86 -52 122.5t-149 36.5q-59 0 -129.5 -10t-115.5 -22zM178 168q0 90 51.5 137t143.5 47q94 0 145 -47t51 -137t-51 -137t-145 -47 q-92 0 -143.5 47t-51.5 137z" />
<glyph unicode="@" horiz-adv-x="1718" d="M63 535q0 207 60.5 364.5t170 265t261.5 162.5t336 55q197 0 338 -53t232 -151.5t135 -237.5t44 -313q0 -244 -98 -385.5t-293 -141.5q-92 0 -147 42t-68 128h-8q-53 -86 -134 -122.5t-167 -36.5q-74 0 -128 27.5t-90 76.5t-53.5 115.5t-17.5 144.5q0 117 34 214 t97.5 168t153.5 111t205 40q137 0 338 -82l-78 -420q-4 -29 -9.5 -60.5t-5.5 -60.5q0 -45 18.5 -74.5t70.5 -29.5q78 0 118.5 93t40.5 253q0 127 -29.5 228t-94 173t-165 111t-239.5 39q-135 0 -247 -42t-190.5 -123t-122.5 -202t-44 -276q0 -168 45 -286t121.5 -191.5 t177 -107.5t209.5 -34q84 0 187 23.5t216 58.5l66 -184q-125 -41 -245 -67t-224 -26q-154 0 -294 44.5t-248 141.5t-171.5 251.5t-63.5 376.5zM653 475q0 -72 26.5 -125t92.5 -53q31 0 63.5 12.5t62.5 41t52.5 74.5t34.5 114l47 270q-29 10 -55.5 12t-50.5 2 q-61 0 -112.5 -25.5t-86.5 -71.5t-54.5 -110.5t-19.5 -140.5z" />
<glyph unicode="A" horiz-adv-x="1374" d="M-4 0v16l412 1500h559l411 -1500v-16h-352l-94 346h-492l-92 -346h-352zM516 639h342l-94 358l-64 250h-26l-64 -252z" />
<glyph unicode="B" horiz-adv-x="1312" d="M119 10v1495q141 16 254.5 23.5t218.5 7.5q326 0 475.5 -103.5t149.5 -328.5q0 -258 -236 -320v-8q135 -29 205.5 -121t70.5 -240q0 -435 -663 -435q-117 0 -236.5 7t-238.5 23zM465 264q23 -4 59.5 -7t108.5 -3q248 0 248 188q0 104 -56.5 147.5t-197.5 43.5h-162v-369z M465 891h151q125 0 174.5 41t49.5 147q0 96 -52.5 139.5t-162.5 43.5q-78 0 -160 -13v-358z" />
<glyph unicode="C" horiz-adv-x="1105" d="M63 758q0 399 168 588.5t498 189.5q72 0 149.5 -8t170.5 -25v-293q-86 12 -149.5 17.5t-117.5 5.5q-96 0 -160.5 -20.5t-103.5 -74t-56.5 -145.5t-17.5 -237q0 -143 17.5 -234.5t56.5 -144.5t102.5 -73.5t157.5 -20.5q66 0 139.5 7t131.5 21v-288q-53 -18 -138.5 -30.5 t-171.5 -12.5q-340 0 -508 189t-168 589z" />
<glyph unicode="D" horiz-adv-x="1413" d="M119 0v1513q150 10 253 15.5t187 5.5q213 0 362.5 -43t245 -136t139.5 -241.5t44 -357.5q0 -213 -45 -360.5t-144.5 -242t-257.5 -136.5t-381 -42q-180 0 -403 25zM485 285q53 -6 93 -9.5t79 -3.5q90 0 149.5 22.5t95.5 78t51.5 148.5t15.5 237q0 141 -16.5 233 t-56.5 147.5t-106.5 78t-166.5 22.5q-39 0 -71 -2t-67 -6v-946z" />
<glyph unicode="E" d="M119 0v1516h1003v-302h-630v-305h563v-301h-563v-307h649v-301h-1022z" />
<glyph unicode="F" horiz-adv-x="1153" d="M119 0v1516h987v-302h-614v-344h548v-301h-548v-569h-373z" />
<glyph unicode="G" horiz-adv-x="1290" d="M61 758q0 778 748 778q88 0 185.5 -11.5t189.5 -33.5v-295q-111 20 -194 29.5t-146 9.5q-115 0 -192 -23.5t-123 -79t-65.5 -147.5t-19.5 -229q0 -139 15.5 -230.5t54.5 -144.5t102.5 -75.5t161.5 -22.5q23 0 46.5 1t45.5 3v483h336v-741q-143 -25 -258 -37t-209 -12 q-344 0 -511 191t-167 587z" />
<glyph unicode="H" horiz-adv-x="1492" d="M119 0v1516h373v-590h509v590h371v-1516h-371v625h-509v-625h-373z" />
<glyph unicode="I" horiz-adv-x="610" d="M119 0v1516h373v-1516h-373z" />
<glyph unicode="J" horiz-adv-x="610" d="M-31 -326q45 102 75 189.5t47.5 171.5t24.5 172t7 194v1115h373v-1145q0 -106 -15.5 -201.5t-50.5 -191t-90 -194.5t-137 -214z" />
<glyph unicode="K" horiz-adv-x="1366" d="M119 0v1516h373v-594h161l279 594h411l-342 -676l-114 -56v-14l119 -55l378 -715h-413l-318 618h-161v-618h-373z" />
<glyph unicode="L" horiz-adv-x="1038" d="M119 0v1516h373v-1215h522v-301h-895z" />
<glyph unicode="M" horiz-adv-x="1898" d="M119 0v1516h524l238 -715l59 -273h14l62 273l239 715h523v-1516h-340v1079h-15l-88 -309l-235 -696h-307l-234 696l-90 309h-14v-1079h-336z" />
<glyph unicode="N" horiz-adv-x="1492" d="M119 0v1516h303l514 -740l92 -164h21v904h325v-1516h-303l-510 737l-96 170h-21v-907h-325z" />
<glyph unicode="O" horiz-adv-x="1470" d="M63 756q0 780 670 780q674 0 674 -780q0 -776 -674 -776q-670 0 -670 776zM444 756q0 -133 15.5 -224.5t49.5 -146.5t89 -79.5t135 -24.5q82 0 139.5 23.5t91 78.5t49 146.5t15.5 226.5t-15.5 227t-50 147.5t-91 80t-138.5 24.5q-80 0 -135 -24.5t-89 -80t-49.5 -147.5 t-15.5 -227z" />
<glyph unicode="P" horiz-adv-x="1300" d="M119 0v1505q211 31 422 31q190 0 327.5 -31.5t225.5 -97.5t129 -170t41 -248q0 -281 -170 -412t-535 -131h-67v-446h-373zM492 748q23 -4 55 -6.5t61 -2.5q80 0 132.5 12.5t85 41t46 77t13.5 119.5q0 70 -13.5 118t-45 76.5t-85 42t-135.5 13.5q-29 0 -62.5 -2t-51.5 -6 v-483z" />
<glyph unicode="Q" horiz-adv-x="1466" d="M61 756q0 780 672 780t672 -780q0 -291 -130 -457t-386 -207v-29q80 -20 141.5 -33.5t121.5 -22.5t124.5 -15t150.5 -10l-176 -291q-342 88 -570 183t-365.5 218t-196 283t-58.5 381zM434 756q0 -135 15.5 -227.5t50.5 -148.5t92 -81t141 -25t141.5 25t92 81t50 148.5 t15.5 227.5q0 137 -15.5 230t-50 149.5t-92 81t-141.5 24.5t-141 -24.5t-92 -82t-50.5 -149.5t-15.5 -229z" />
<glyph unicode="R" horiz-adv-x="1327" d="M119 0v1505q100 16 206.5 23.5t215.5 7.5q190 0 327.5 -29.5t224.5 -93t129 -163t42 -236.5q0 -328 -265 -443l320 -571h-395l-246 504q-23 -2 -45.5 -2h-46.5h-17.5t-29 1t-29.5 1h-18v-504h-373zM492 795q23 -4 53 -6.5t63 -2.5q80 0 132.5 11.5t85 38t46 69.5 t13.5 107q0 63 -13.5 107t-46 71t-86 38t-133.5 11q-23 0 -57.5 -2t-56.5 -6v-436z" />
<glyph unicode="S" horiz-adv-x="1146" d="M63 49v307q102 -35 221 -57.5t214 -22.5q119 0 174 38t55 116q0 41 -17.5 69.5t-50 49t-78.5 35t-104 26.5q-86 20 -159.5 52t-127 87.5t-84 138.5t-30.5 206q0 209 145.5 325.5t403.5 116.5q92 0 193.5 -12.5t221.5 -42.5l-10 -299q-43 12 -93 22t-99.5 18.5t-95.5 12.5 t-83 4q-204 0 -204 -140q0 -44 20.5 -75t56 -53.5t87 -40t112.5 -37.5q82 -27 150.5 -60.5t118 -85t77 -123t27.5 -173.5q0 -227 -143.5 -351.5t-405.5 -124.5q-111 0 -236.5 18.5t-255.5 55.5z" />
<glyph unicode="T" horiz-adv-x="1185" d="M35 1208v308h1114v-308h-371v-1208h-372v1208h-371z" />
<glyph unicode="U" horiz-adv-x="1464" d="M109 596v920h370v-908q0 -172 58.5 -246.5t195.5 -74.5t194.5 74.5t57.5 246.5v908h371v-920q0 -156 -32 -271.5t-105.5 -192.5t-192.5 -114.5t-293 -37.5t-294 37.5t-193.5 114.5t-105 192.5t-31.5 271.5z" />
<glyph unicode="V" horiz-adv-x="1366" d="M-6 1516h373l241 -865l64 -321h26l68 321l238 865h366l-432 -1516h-506z" />
<glyph unicode="W" horiz-adv-x="2041" d="M10 1516h404l149 -885l27 -211h22l35 211l199 885h360l195 -885l33 -211h24l27 211l151 885h398l-351 -1516h-452l-168 719l-31 299h-20l-33 -299l-168 -719h-455z" />
<glyph unicode="X" horiz-adv-x="1376" d="M-29 0l480 784l-437 732h418l236 -433l24 -59h10l25 59l234 433h401l-444 -719l489 -797h-412l-288 498l-25 53h-10l-21 -53l-276 -498h-404z" />
<glyph unicode="Y" horiz-adv-x="1396" d="M-20 1516h413l256 -549l41 -121h19l41 121l258 549h407l-530 -1006v-510h-371v504z" />
<glyph unicode="Z" horiz-adv-x="1202" d="M53 0v315l641 877v20h-610v304h1032v-314l-641 -880v-19h676v-303h-1098z" />
<glyph unicode="[" horiz-adv-x="727" d="M133 -328v2106h553v-234h-274v-1638h274v-234h-553z" />
<glyph unicode="\" horiz-adv-x="780" d="M43 1516h309l385 -1762h-309z" />
<glyph unicode="]" horiz-adv-x="727" d="M41 -94h274v1638h-274v234h553v-2106h-553v234z" />
<glyph unicode="^" horiz-adv-x="956" d="M55 985l260 631h326l260 -631h-254l-166 416h-8l-164 -416h-254z" />
<glyph unicode="_" horiz-adv-x="1187" d="M74 -121h1042v-264h-1042v264z" />
<glyph unicode="`" horiz-adv-x="591" d="M16 1653h373l133 -383l-258 -21z" />
<glyph unicode="a" horiz-adv-x="1112" d="M41 319q0 324 408 351l206 12q0 53 -8 88t-27.5 54.5t-55.5 27.5t-93 8q-29 0 -71 -3t-88 -7t-90 -10t-75 -13l-22 256q102 16 204.5 27.5t196.5 11.5q258 0 375 -86t117 -276v-760h-299l-27 133h-20q-59 -68 -140.5 -105.5t-173.5 -37.5q-147 0 -232 90t-85 239z M403 354q1 -108 101 -108q37 0 79 18.5t72 40.5v176l-116 -12q-74 -8 -105 -33.5t-31 -81.5z" />
<glyph unicode="b" d="M98 59v1596h363v-662q51 66 126 98.5t167 32.5q393 0 393 -536q0 -281 -137 -441.5t-430 -166.5q-100 0 -214 19t-268 60zM461 240q47 -21 123 -21q57 0 95 14.5t59.5 51.5t30.5 101.5t9 162.5q0 94 -7 155.5t-24.5 96.5t-47 49t-74.5 14q-43 0 -74 -15t-50.5 -52 t-29.5 -99.5t-10 -156.5v-301z" />
<glyph unicode="c" horiz-adv-x="944" d="M57 553q0 295 138.5 433t418.5 138q72 0 140.5 -9t122.5 -25v-281q-61 10 -118 16t-106 6q-125 0 -177 -61t-52 -213q0 -154 52 -219.5t175 -65.5q66 0 118 5.5t108 17.5v-279q-51 -16 -121 -25t-142 -9q-281 0 -419 138t-138 433z" />
<glyph unicode="d" horiz-adv-x="1206" d="M59 518q0 305 144.5 455.5t421.5 150.5q27 0 54.5 -1t63.5 -5v537h363v-1655h-328l-22 119h-13q-99 -137 -292 -137q-391 0 -392 536zM426 557q0 -94 7 -155.5t24.5 -98.5t47.5 -51t75 -14q43 0 72.5 15t50 53t30.5 101.5t10 157.5v297q-57 20 -129 21q-55 0 -92 -14.5 t-58.5 -50.5t-29.5 -99.5t-8 -161.5z" />
<glyph unicode="e" horiz-adv-x="1097" d="M57 543q0 289 134.5 435t400.5 146q229 0 338.5 -126t109.5 -390q0 -59 -3 -95t-11 -71h-604q4 -57 16.5 -94t35 -58.5t57 -29.5t85.5 -8q72 0 174.5 15.5t200.5 39.5l10 -262q-86 -29 -197.5 -46t-213.5 -17q-532 0 -533 561zM420 649h303q-4 119 -36.5 167t-106.5 48 q-78 0 -114 -47t-46 -168z" />
<glyph unicode="f" horiz-adv-x="833" d="M27 803v303h180v51q0 141 32.5 237.5t106.5 157t195 88t297 31.5l20 -268q-84 -4 -140 -16.5t-90 -38t-47.5 -65.5t-13.5 -101v-76h248v-303h-248v-803h-362v803h-178z" />
<glyph unicode="g" horiz-adv-x="1206" d="M59 524q0 299 145.5 449.5t420.5 150.5q98 0 208.5 -16t274.5 -61v-895q0 -156 -41 -269.5t-118 -187.5t-186.5 -110t-244.5 -36q-94 0 -194.5 12.5t-188.5 35.5l23 260q84 -16 162.5 -27.5t150.5 -11.5q141 0 214 61.5t75 212.5v78h-12q-98 -135 -289 -135 q-399 0 -400 489zM428 563q0 -82 7 -136t24.5 -87t47.5 -46t75 -13q86 0 124.5 66.5t38.5 238.5v276q-57 20 -129 21q-55 0 -92 -14.5t-58.5 -50.5t-29.5 -97.5t-8 -157.5z" />
<glyph unicode="h" horiz-adv-x="1202" d="M100 0v1655h363v-654q61 35 111.5 58.5t93.5 39t83 21.5t80 6q127 0 201 -79.5t74 -221.5v-825h-363v700q0 123 -94 123q-35 0 -83 -14t-103 -41v-768h-363z" />
<glyph unicode="i" horiz-adv-x="565" d="M86 1440q0 100 46 145t151 45q104 0 151 -46t47 -144q0 -100 -46 -146.5t-152 -46.5q-104 0 -150.5 44t-46.5 149zM102 0v1106h361v-1106h-361z" />
<glyph unicode="j" horiz-adv-x="565" d="M20 -389q41 135 62.5 296t21.5 357v66.5v144.5v187.5v192.5t-1 159.5t-1 91.5h363v-956q0 -72 -14.5 -152t-41 -159t-61.5 -153.5t-76 -136.5zM86 1440q0 100 46 145t151 45q104 0 151 -46t47 -144q0 -100 -46 -146.5t-152 -46.5q-104 0 -150.5 44t-46.5 149z" />
<glyph unicode="k" horiz-adv-x="1159" d="M100 0v1655h363v-961h78l219 412h391l-317 -514l-54 -19v-6l56 -18l352 -549h-395l-254 444h-76v-444h-363z" />
<glyph unicode="l" horiz-adv-x="565" d="M102 0v1655h363v-1655h-363z" />
<glyph unicode="m" horiz-adv-x="1779" d="M102 0v1106h297l19 -121h12q61 39 109.5 66.5t91.5 44t83 23.5t83 7q84 0 144 -35.5t95 -107.5h13q113 78 192.5 110.5t167.5 32.5q127 0 200.5 -79.5t73.5 -221.5v-825h-356v696q0 125 -100 125q-29 0 -72 -14t-84 -39v-768h-356v696q0 125 -101 125q-31 0 -72.5 -14 t-84.5 -39v-768h-355z" />
<glyph unicode="n" horiz-adv-x="1202" d="M102 0v1106h304l20 -121h10q70 41 124 67.5t100.5 43t87 23.5t83.5 7q127 0 201 -79.5t74 -221.5v-825h-363v700q0 66 -24.5 94.5t-69.5 28.5q-41 0 -89 -15t-95 -40v-768h-363z" />
<glyph unicode="o" horiz-adv-x="1187" d="M57 553q0 283 136.5 428t400.5 145t400 -145t136 -428t-136 -429.5t-400 -146.5t-400.5 146.5t-136.5 429.5zM420 553q0 -92 8 -150.5t27.5 -92.5t53.5 -46t85 -12t85 12t53.5 46t27.5 92.5t8 150.5t-8 149.5t-28.5 91t-53.5 46t-84 12.5t-85 -12.5t-53.5 -46t-27.5 -91 t-8 -149.5z" />
<glyph unicode="p" horiz-adv-x="1208" d="M102 -451v1557h324l20 -119h11q102 137 301 137q391 0 391 -534q0 -299 -141.5 -454.5t-419.5 -155.5q-29 0 -58.5 2t-64.5 6v-439h-363zM465 244q51 -21 127 -21q55 0 91 14.5t57.5 51.5t30.5 100.5t9 161.5q0 94 -7 155.5t-23.5 96.5t-46 49t-74.5 14q-43 0 -75 -15 t-51.5 -54t-28.5 -102.5t-9 -157.5v-293z" />
<glyph unicode="q" d="M59 518q0 309 145.5 457.5t434.5 148.5q111 0 232.5 -14t232.5 -37v-1524h-356v568q-53 -72 -126 -103.5t-169 -31.5q-393 0 -394 536zM420 567q0 -98 7 -162.5t24.5 -101.5t49.5 -51t81 -14q45 0 75.5 16t49 55t26.5 102.5t8 157.5v295q-47 18 -125 19q-61 0 -99 -13.5 t-59.5 -48.5t-29.5 -96t-8 -158z" />
<glyph unicode="r" horiz-adv-x="841" d="M102 0v1106h304l20 -166h12q16 18 50 45t76 52.5t88 49t85 37.5h84v-323h-139q-59 -6 -123.5 -34t-93.5 -56v-711h-363z" />
<glyph unicode="s" horiz-adv-x="970" d="M70 35v258q86 -27 183 -43.5t183 -16.5q139 0 139 82q0 41 -32.5 62.5t-104.5 32.5q-55 6 -118.5 18t-119 47t-91 101.5t-35.5 185.5q0 174 109.5 269t314.5 95q80 0 175 -10t199 -33l-10 -264q-104 25 -174 34t-127 9q-149 0 -149 -85q0 -46 35.5 -65.5t107.5 -29.5 q66 -10 130.5 -26.5t116.5 -52.5t85 -98.5t33 -162.5q0 -176 -122.5 -269t-351.5 -93q-88 0 -186 14t-190 41z" />
<glyph unicode="t" horiz-adv-x="829" d="M25 803v303h190l49 326l289 32v-358h227v-303h-225v-397q0 -86 28.5 -120t92.5 -34q47 0 106 18v-264q-43 -10 -98.5 -17t-112.5 -7q-186 0 -282 85t-96 248v488h-168z" />
<glyph unicode="u" horiz-adv-x="1200" d="M94 281v825h363v-711q0 -123 102 -123q70 0 178 58v776h363v-1106h-305l-21 117h-8q-66 -41 -113 -66.5t-88 -42t-81 -22.5t-87 -6q-141 0 -222 80.5t-81 220.5z" />
<glyph unicode="v" horiz-adv-x="1165" d="M6 1081v25h381l152 -610l34 -193h21l35 193l155 610h375v-25l-364 -1081h-426z" />
<glyph unicode="w" horiz-adv-x="1611" d="M27 1098v8h338l94 -623l18 -127h23l20 127l119 623h334l121 -623l18 -127h25l16 127l94 623h336v-8l-235 -1098h-404l-113 573l-14 119h-22l-15 -119l-112 -573h-404z" />
<glyph unicode="x" horiz-adv-x="1159" d="M8 0v31l318 544l-308 510v21h383l138 -275l34 -79h19l35 79l133 275h383v-21l-309 -532l317 -522v-31h-377l-151 305l-35 90h-23l-33 -90l-145 -305h-379z" />
<glyph unicode="y" horiz-adv-x="1179" d="M0 1075v31h377l164 -569l37 -175h22l37 175l166 569h373v-31l-545 -1526l-357 64v20l129 373z" />
<glyph unicode="z" horiz-adv-x="997" d="M61 0v244l437 571v16h-422v275h842v-244l-424 -571v-17h444v-274h-877z" />
<glyph unicode="{" horiz-adv-x="684" d="M43 594v268q72 0 100.5 45t28.5 137v480q0 139 54.5 196.5t176.5 57.5q18 0 54.5 -1t72 -3t65.5 -3.5t38 -3.5v-223h-78q-96 0 -96 -88v-485q0 -96 -45 -163t-119 -81q74 -12 119 -77.5t45 -162.5v-489q0 -90 96 -90h78v-223q-8 -2 -38 -4.5t-65.5 -3.5t-71.5 -2t-55 -1 q-123 0 -177 57.5t-54 198.5v484q0 92 -28.5 136t-100.5 44z" />
<glyph unicode="|" horiz-adv-x="606" d="M133 -451v2106h338v-2106h-338z" />
<glyph unicode="}" horiz-adv-x="684" d="M49 -92h80q51 0 72.5 21.5t21.5 68.5v489q0 96 46 162t120 78q-74 14 -120 80.5t-46 163.5v485q0 47 -21.5 67.5t-72.5 20.5h-80v223q8 2 39 3.5t66.5 3.5t71.5 3t55 1q123 0 177 -57.5t54 -196.5v-480q0 -92 27.5 -137t101.5 -45v-268q-74 0 -101.5 -44t-27.5 -136v-484 q0 -141 -54.5 -198.5t-176.5 -57.5q-18 0 -54.5 1t-72 2t-66.5 3.5t-39 4.5v223z" />
<glyph unicode="~" horiz-adv-x="1284" d="M59 547q63 84 112.5 139t91.5 87t82 45t85 13q61 0 112.5 -23.5t97.5 -52t90 -52t93 -23.5q109 0 197 156l207 -123q-31 -47 -68 -99.5t-83 -98.5t-100 -75.5t-118 -29.5q-61 0 -113.5 23.5t-98.5 53t-90 53t-91 23.5q-100 0 -201 -155z" />
<glyph unicode="&#xa1;" horiz-adv-x="555" d="M84 938q0 88 51.5 136t143.5 48t144 -48t52 -136q0 -90 -52 -138t-144 -48t-143.5 48t-51.5 138zM90 -389l78 942v22h223v-22l76 -942v-21h-377v21z" />
<glyph unicode="&#xa2;" horiz-adv-x="964" d="M55 553q0 260 107.5 397t324.5 166v236h224v-232q45 -4 87 -12t76 -18v-281q-61 10 -117.5 16t-105.5 6q-125 0 -177 -61t-52 -213q0 -154 52 -219.5t175 -65.5q66 0 118 5.5t107 17.5v-279q-35 -10 -75.5 -18t-87.5 -12v-232h-224v236q-217 29 -324.5 166t-107.5 397z " />
<glyph unicode="&#xa3;" horiz-adv-x="1302" d="M72 0v313h247v312h-247v278h247v174q0 233 124 345t391 112q92 0 186 -12.5t217 -38.5l-10 -291q-78 16 -170 27.5t-158 11.5q-117 0 -163 -35t-46 -125v-168h367v-278h-367v-314h518v-311h-1136z" />
<glyph unicode="&#xa4;" horiz-adv-x="1234" d="M70 340l112 111l103 75q-74 96 -74 232q0 135 76 229l-105 80l-112 109l129 131l110 -113l84 -115q96 51 223 51q129 0 224 -53l86 117l110 113l129 -131l-112 -109l-107 -80q74 -96 74 -229q0 -68 -18.5 -125.5t-53.5 -104.5l105 -77l112 -111l-129 -131l-110 113 l-84 114q-96 -53 -226 -53q-129 0 -223 53l-84 -114l-110 -113zM430 758q0 -94 50 -144.5t136 -50.5t136.5 49.5t50.5 145.5q0 94 -50.5 143t-136.5 49t-136 -49t-50 -143z" />
<glyph unicode="&#xa5;" horiz-adv-x="1519" d="M43 1516h414l256 -549l41 -121h18l41 121l258 549h408l-408 -771h234v-241h-357v-139h357v-242h-357v-123h-370v123h-375v242h375v139h-375v241h246z" />
<glyph unicode="&#xa6;" horiz-adv-x="604" d="M133 420h338v-871h-338v871zM133 784v871h338v-871h-338z" />
<glyph unicode="&#xa7;" horiz-adv-x="1017" d="M88 35v256q86 -27 183.5 -42.5t183.5 -15.5q139 0 139 82q0 41 -33 62.5t-104 32.5q-55 6 -119 17t-118 46t-91 102.5t-37 186.5q0 127 64 215q-29 35 -46.5 87t-17.5 128q0 174 110.5 269t315.5 95q160 0 367 -43l-4 -262q-104 23 -173 32t-126 9q-150 0 -150 -86 q0 -45 35 -64.5t106 -29.5q66 -8 131.5 -24.5t117.5 -53.5t85 -99.5t33 -162.5q0 -131 -74 -221q35 -35 54.5 -86t19.5 -123q0 -176 -122 -269t-353 -93q-86 0 -184.5 14t-192.5 41zM418 782q0 -49 21.5 -71.5t64.5 -36.5q14 -6 38 -11.5t44 -9.5q23 33 22 84 q0 43 -18.5 67.5t-57.5 37.5q-12 4 -33.5 10t-37.5 10q-43 -35 -43 -80z" />
<glyph unicode="&#xa8;" horiz-adv-x="1036" d="M84 1430q0 90 41 131t135 41t137 -41t43 -131q0 -92 -43 -133.5t-137 -41.5t-135 41t-41 134zM588 1430q0 90 42 131t136 41q92 0 135 -41t43 -131q0 -92 -43 -133.5t-135 -41.5q-94 0 -136 41t-42 134z" />
<glyph unicode="&#xa9;" horiz-adv-x="1648" d="M66 758q0 174 54 317.5t152.5 245.5t238.5 158.5t312 56.5t312.5 -56.5t240 -158.5t153.5 -245.5t54 -317.5t-54 -317.5t-153.5 -246t-240 -158.5t-312.5 -56t-312 56t-238.5 158.5t-152.5 246t-54 317.5zM260 758q0 -135 39 -245t110.5 -187.5t176 -120.5t237.5 -43 q131 0 236.5 43t177.5 120.5t110.5 187.5t38.5 245t-38.5 244.5t-110.5 187.5t-177.5 121t-236.5 43q-133 0 -237.5 -43t-176 -121t-110.5 -187.5t-39 -244.5zM467 754q0 422 387 422q49 0 100.5 -6.5t87.5 -16.5v-190q-104 18 -159 18q-109 0 -146 -53.5t-37 -171.5 q0 -119 38 -172.5t141 -53.5q25 0 67.5 4.5t95.5 14.5v-191q-37 -10 -88 -16t-100 -6q-387 0 -387 418z" />
<glyph unicode="&#xaa;" horiz-adv-x="899" d="M53 958q0 227 287 240l180 8q0 43 -4 67.5t-16.5 37t-35 15.5t-61.5 3q-55 0 -128.5 -5t-139.5 -15l-16 186q80 16 158.5 24.5t156.5 8.5q199 0 286 -60.5t87 -193.5v-553h-244l-14 96h-8q-43 -47 -109.5 -75.5t-136.5 -28.5q-111 0 -176.5 66.5t-65.5 178.5zM338 979 q0 -74 74 -74q25 0 54.5 11.5t53.5 29.5v113l-94 -8q-49 -4 -68.5 -20.5t-19.5 -51.5z" />
<glyph unicode="&#xab;" horiz-adv-x="1304" d="M47 549v8l252 487h363l-250 -487v-8l250 -488h-363zM635 549v8l252 487h362l-250 -487v-8l250 -488h-362z" />
<glyph unicode="&#xac;" horiz-adv-x="1617" d="M76 612v291h1433v-706h-354v415h-1079z" />
<glyph unicode="&#xad;" horiz-adv-x="913" d="M94 440v267h725v-267h-725z" />
<glyph unicode="&#xae;" horiz-adv-x="1398" d="M72 918q0 137 45 251.5t127 197.5t197.5 128t256.5 45t257 -45t199 -128t128 -197.5t45 -251.5q0 -139 -45 -254t-128 -198t-199 -128t-257 -45t-256.5 45t-197.5 128t-127 197.5t-45 254.5zM229 918q0 -109 33 -196t93.5 -150.5t147 -97.5t195.5 -34t196 34t148.5 97.5 t94 150.5t32.5 196q0 106 -32.5 194t-94 150.5t-148.5 96.5t-196 34t-195.5 -34t-147 -96.5t-93.5 -150.5t-33 -194zM477 612v637q53 4 103.5 7.5t97.5 3.5q276 0 276 -207q0 -70 -28.5 -118t-87.5 -67v-4l131 -252h-154l-104 213h-84v-213h-150zM627 942q4 -2 25.5 -2h25.5 q72 0 97.5 25.5t25.5 83.5q0 47 -23.5 74.5t-85.5 27.5h-11t-20.5 -1t-21.5 -1h-12v-207z" />
<glyph unicode="&#xaf;" horiz-adv-x="940" d="M96 1286v225h729v-225h-729z" />
<glyph unicode="&#xb0;" horiz-adv-x="894" d="M47 1147q0 84 29.5 155.5t83 124t127 81t162.5 28.5q88 0 161.5 -28.5t125.5 -81t82 -124t30 -155.5t-30 -155.5t-82 -123t-125.5 -80t-161.5 -28.5t-162 28.5t-127.5 80t-83 123t-29.5 155.5zM252 1147q0 -92 49.5 -145.5t147.5 -53.5t146 53.5t48 145.5t-48 146.5 t-146 54.5t-147.5 -54.5t-49.5 -146.5z" />
<glyph unicode="&#xb1;" horiz-adv-x="1091" d="M92 748v245h330v324h246v-324h329v-245h-329v-306h-246v306h-330zM94 92v246h903v-246h-903z" />
<glyph unicode="&#xb2;" horiz-adv-x="897" d="M51 614v201q0 68 16.5 123t53.5 103.5t96 92.5t143 89q96 49 131 86t35 84q0 96 -174 96q-55 0 -118.5 -8t-133.5 -21l-24 244q102 23 191 34t161 11q410 0 410 -326q0 -123 -61.5 -209t-182.5 -147q-195 -115 -195 -174v-27h432v-252h-780z" />
<glyph unicode="&#xb3;" horiz-adv-x="841" d="M63 1722q57 12 127 19.5t136 7.5q225 0 331.5 -71.5t106.5 -223.5q0 -98 -42 -163.5t-120 -98.5q92 -31 140.5 -98.5t48.5 -165.5q0 -158 -118 -243t-335 -85q-78 0 -148.5 6t-123.5 17v260h16q37 -10 94 -16.5t105 -6.5q117 0 160.5 23.5t43.5 79.5q0 59 -46 82.5 t-173 23.5h-80v221h80q104 0 146.5 23.5t42.5 77.5q0 53 -37 75.5t-125 22.5q-41 0 -95.5 -5t-115.5 -16h-16z" />
<glyph unicode="&#xb4;" horiz-adv-x="575" d="M53 1268l133 385h371l-246 -406z" />
<glyph unicode="&#xb5;" horiz-adv-x="1271" d="M131 -451v1557h363v-723q2 -111 102 -111q72 0 176 56v778h363v-1106h-306l-18 117h-8q-53 -33 -95 -56.5t-78 -40t-69 -25.5t-67 -11v-435h-363z" />
<glyph unicode="&#xb6;" horiz-adv-x="1224" d="M53 1034q0 137 31 231.5t88 152t138 83t184 25.5q53 0 119.5 -5t129.5 -16v-1505h-159v545q-29 -2 -46.5 -2h-39.5q-102 0 -184.5 25.5t-140.5 83t-89 151.5t-31 231zM856 0v1505h213v-1505h-213z" />
<glyph unicode="&#xb7;" horiz-adv-x="538" d="M72 758q0 102 46 147t150 45t151.5 -45t47.5 -147t-47.5 -147.5t-151.5 -45.5t-150 45t-46 148z" />
<glyph unicode="&#xb8;" horiz-adv-x="571" d="M57 -217q41 -10 80 -13t58 -3q39 0 55 17t16 44q0 41 -35.5 110.5t-101.5 151.5h219q43 -53 73 -95t47 -79t25.5 -71.5t8.5 -73.5q0 -102 -65.5 -162t-188.5 -60q-37 0 -87 6.5t-104 18.5v209z" />
<glyph unicode="&#xb9;" horiz-adv-x="716" d="M10 1495l8 41l353 197h231v-1119h-311v797l-203 -59h-33z" />
<glyph unicode="&#xba;" horiz-adv-x="931" d="M53 1118q0 209 106.5 310.5t305.5 101.5q201 0 306.5 -101.5t105.5 -310.5t-105.5 -310t-306.5 -101q-199 0 -305.5 101t-106.5 310zM340 1118q0 -66 3 -105.5t16.5 -62t38 -31t67.5 -8.5t68.5 8.5t38 31t16.5 62.5t4 105q0 63 -4 103.5t-16.5 64t-38 31.5t-68.5 8 t-67.5 -8t-38 -31.5t-16.5 -63.5t-3 -104z" />
<glyph unicode="&#xbb;" horiz-adv-x="1304" d="M55 61l250 488v8l-250 487h363l252 -487v-8l-252 -488h-363zM641 61l250 488v8l-250 487h363l251 -487v-8l-251 -488h-363z" />
<glyph unicode="&#xbc;" horiz-adv-x="2222" d="M41 1290l8 41l352 197h232v-1118h-311v796l-203 -59h-33zM584 0l590 1516h296l-589 -1516h-297zM1257 401l355 701l24 16l271 -18l22 -39l-368 -621h192l86 277h199v-277h129v-227h-129v-213h-312v213h-436z" />
<glyph unicode="&#xbd;" horiz-adv-x="2242" d="M41 1290l8 41l352 197h232v-1118h-311v796l-203 -59h-33zM584 0l590 1516h296l-589 -1516h-297zM1376 0v201q0 66 16.5 121t53.5 103t95 92t145 91q98 51 131.5 87t33.5 81q0 98 -174 98q-59 0 -126.5 -7t-125.5 -21l-24 244q109 23 197 34t155 11q410 0 410 -326 q0 -119 -59.5 -205t-184.5 -151q-100 -59 -147.5 -101.5t-47.5 -72.5v-27h433v-252h-781z" />
<glyph unicode="&#xbe;" horiz-adv-x="2228" d="M86 1518q57 12 127 19t135 7q225 0 331.5 -71.5t106.5 -223.5q0 -98 -42 -163.5t-119 -98.5q92 -31 140 -98.5t48 -165.5q0 -158 -118 -243t-335 -85q-78 0 -148.5 6.5t-123.5 16.5v260h16q37 -10 94.5 -16.5t104.5 -6.5q117 0 161 23.5t44 79.5q0 59 -46 82.5t-173 23.5 h-80v221h80q104 0 146 24t42 77t-37 75.5t-125 22.5q-41 0 -95 -5t-116 -15h-16zM662 0l589 1516h297l-590 -1516h-296zM1272 401l354 701l25 16l270 -18l23 -39l-369 -621h192l86 277h199v-277h129v-227h-129v-213h-311v213h-436z" />
<glyph unicode="&#xbf;" horiz-adv-x="905" d="M45 -20q0 174 100.5 276t268.5 135l16 205v31h227v-29l31 -365q-141 -29 -217 -76.5t-76 -140.5q0 -86 52.5 -122.5t148.5 -36.5q59 0 130 10t116 22l12 -270q-160 -43 -330 -43q-223 0 -351 101.5t-128 302.5zM342 938q0 90 51.5 137t145.5 47q92 0 143 -47t51 -137 t-51 -137t-143 -47q-94 0 -145.5 47t-51.5 137z" />
<glyph unicode="&#xc0;" horiz-adv-x="1374" d="M-4 0v16l412 1500h559l411 -1500v-16h-352l-94 346h-492l-92 -346h-352zM299 2011h371l133 -364l-260 -21zM516 639h342l-94 358l-64 250h-26l-64 -252z" />
<glyph unicode="&#xc1;" horiz-adv-x="1374" d="M-4 0v16l412 1500h559l411 -1500v-16h-352l-94 346h-492l-92 -346h-352zM516 639h342l-94 358l-64 250h-26l-64 -252zM547 1645l133 366h371l-244 -385z" />
<glyph unicode="&#xc2;" horiz-adv-x="1374" d="M-4 0v16l412 1500h559l411 -1500v-16h-352l-94 346h-492l-92 -346h-352zM326 1624v242l366 149l367 -149v-242l-367 150zM516 639h342l-94 358l-64 250h-26l-64 -252z" />
<glyph unicode="&#xc3;" horiz-adv-x="1374" d="M-4 0v16l412 1500h559l411 -1500v-16h-352l-94 346h-492l-92 -346h-352zM276 1724q66 129 147 191.5t159 62.5q45 0 88 -12t85 -26.5t85 -26.5t88 -12q41 0 81 16t87 61l47 -51q-61 -129 -143 -192.5t-160 -63.5q-43 0 -87 12.5t-87 26.5t-86 26.5t-86 12.5t-83 -16.5 t-87 -59.5zM516 639h342l-94 358l-64 250h-26l-64 -252z" />
<glyph unicode="&#xc4;" horiz-adv-x="1374" d="M-4 0v16l412 1500h559l411 -1500v-16h-352l-94 346h-492l-92 -346h-352zM219 1831q0 102 46 147t151 45q104 0 151 -46t47 -146q0 -102 -47 -147.5t-151 -45.5t-150.5 45.5t-46.5 147.5zM516 639h342l-94 358l-64 250h-26l-64 -252zM764 1831q0 102 46 147t153 45 q104 0 150 -46t46 -146q0 -102 -46 -147.5t-150 -45.5q-106 0 -152.5 45.5t-46.5 147.5z" />
<glyph unicode="&#xc5;" horiz-adv-x="1374" d="M-4 0v16l412 1500h559l411 -1500v-16h-352l-94 346h-492l-92 -346h-352zM430 1800q0 102 71.5 169t184.5 67t183.5 -66.5t70.5 -169.5q0 -102 -70.5 -167.5t-183.5 -65.5t-184.5 65.5t-71.5 167.5zM516 639h342l-94 358l-64 250h-26l-64 -252zM567 1800q0 -59 26.5 -84.5 t92.5 -25.5t91.5 25.5t25.5 84.5t-25.5 86t-91.5 27t-92.5 -26.5t-26.5 -86.5z" />
<glyph unicode="&#xc6;" horiz-adv-x="1832" d="M-10 0v14l497 1502h1254v-302h-547l20 -305h502v-301h-481l20 -307h508v-301h-870l-14 340h-406l-108 -340h-375zM573 645h293l-24 596h-76z" />
<glyph unicode="&#xc7;" horiz-adv-x="1105" d="M63 758q0 399 168 588.5t498 189.5q72 0 149.5 -8t170.5 -25v-293q-86 12 -149.5 17.5t-117.5 5.5q-96 0 -160.5 -20.5t-103.5 -74t-56.5 -145.5t-17.5 -237q0 -143 17.5 -234.5t56.5 -144.5t102.5 -73.5t157.5 -20.5q66 0 139.5 7t131.5 21v-288q-47 -16 -118 -26.5 t-149 -14.5q39 -59 55.5 -107.5t16.5 -103.5q0 -102 -65.5 -162t-188.5 -60q-37 0 -87 6.5t-103 18.5v209q41 -10 79.5 -13t57.5 -3q39 0 55 17t16 44q0 59 -69 168q-244 47 -365 234.5t-121 527.5z" />
<glyph unicode="&#xc8;" d="M119 0v1516h1003v-302h-630v-305h563v-301h-563v-307h649v-301h-1022zM262 2011h371l133 -364l-260 -21z" />
<glyph unicode="&#xc9;" d="M119 0v1516h1003v-302h-630v-305h563v-301h-563v-307h649v-301h-1022zM483 1645l133 366h371l-244 -385z" />
<glyph unicode="&#xca;" d="M119 0v1516h1003v-302h-630v-305h563v-301h-563v-307h649v-301h-1022zM272 1624v242l367 149l367 -149v-242l-367 150z" />
<glyph unicode="&#xcb;" d="M119 0v1516h1003v-302h-630v-305h563v-301h-563v-307h649v-301h-1022zM164 1831q0 102 46 147t150 45t151.5 -46t47.5 -146q0 -102 -47.5 -147.5t-151.5 -45.5t-150 45.5t-46 147.5zM709 1831q0 102 46 147t152 45q104 0 150.5 -46t46.5 -146q0 -102 -46.5 -147.5 t-150.5 -45.5q-106 0 -152 45.5t-46 147.5z" />
<glyph unicode="&#xcc;" horiz-adv-x="610" d="M-63 2011h370l133 -364l-260 -21zM119 0v1516h373v-1516h-373z" />
<glyph unicode="&#xcd;" horiz-adv-x="610" d="M119 0v1516h373v-1516h-373zM164 1645l133 366h371l-244 -385z" />
<glyph unicode="&#xce;" horiz-adv-x="610" d="M-57 1624v242l366 149l367 -149v-242l-367 150zM119 0v1516h373v-1516h-373z" />
<glyph unicode="&#xcf;" horiz-adv-x="610" d="M-162 1831q0 102 46 147t151 45q104 0 151 -46t47 -146q0 -102 -47 -147.5t-151 -45.5t-150.5 45.5t-46.5 147.5zM119 0v1516h373v-1516h-373zM383 1831q0 102 46 147t153 45q104 0 150 -46t46 -146q0 -102 -46 -147.5t-150 -45.5q-106 0 -152.5 45.5t-46.5 147.5z" />
<glyph unicode="&#xd0;" horiz-adv-x="1462" d="M0 625v278h168v610q150 10 253 15.5t187 5.5q213 0 362.5 -43t245 -136t139.5 -241.5t44 -357.5q0 -213 -45 -360.5t-144.5 -242t-257 -136.5t-381.5 -42q-180 0 -403 25v625h-168zM535 285q53 -6 93 -9.5t79 -3.5q90 0 149 22.5t95 78t51.5 148.5t15.5 237 q0 141 -16.5 233t-56.5 147.5t-106.5 78t-166.5 22.5q-39 0 -71 -2t-66 -6v-328h190v-278h-190v-340z" />
<glyph unicode="&#xd1;" horiz-adv-x="1492" d="M119 0v1516h303l514 -740l92 -164h21v904h325v-1516h-303l-510 737l-96 170h-21v-907h-325zM319 1724q66 129 147 191.5t159 62.5q45 0 88 -12t85 -26.5t85 -26.5t88 -12q41 0 81 16t87 61l47 -51q-61 -129 -143 -192.5t-160 -63.5q-43 0 -87 12.5t-87 26.5t-86 26.5 t-86 12.5t-83 -16.5t-87 -59.5z" />
<glyph unicode="&#xd2;" horiz-adv-x="1470" d="M63 756q0 780 670 780q674 0 674 -780q0 -776 -674 -776q-670 0 -670 776zM348 2011h371l133 -364l-260 -21zM444 756q0 -133 15.5 -224.5t49.5 -146.5t89 -79.5t135 -24.5q82 0 139.5 23.5t91 78.5t49 146.5t15.5 226.5t-15.5 227t-50 147.5t-91 80t-138.5 24.5 q-80 0 -135 -24.5t-89 -80t-49.5 -147.5t-15.5 -227z" />
<glyph unicode="&#xd3;" horiz-adv-x="1470" d="M63 756q0 780 670 780q674 0 674 -780q0 -776 -674 -776q-670 0 -670 776zM444 756q0 -133 15.5 -224.5t49.5 -146.5t89 -79.5t135 -24.5q82 0 139.5 23.5t91 78.5t49 146.5t15.5 226.5t-15.5 227t-50 147.5t-91 80t-138.5 24.5q-80 0 -135 -24.5t-89 -80t-49.5 -147.5 t-15.5 -227zM594 1645l133 366h371l-244 -385z" />
<glyph unicode="&#xd4;" horiz-adv-x="1470" d="M63 756q0 780 670 780q674 0 674 -780q0 -776 -674 -776q-670 0 -670 776zM369 1624v242l366 149l367 -149v-242l-367 150zM444 756q0 -133 15.5 -224.5t49.5 -146.5t89 -79.5t135 -24.5q82 0 139.5 23.5t91 78.5t49 146.5t15.5 226.5t-15.5 227t-50 147.5t-91 80 t-138.5 24.5q-80 0 -135 -24.5t-89 -80t-49.5 -147.5t-15.5 -227z" />
<glyph unicode="&#xd5;" horiz-adv-x="1470" d="M63 756q0 780 670 780q674 0 674 -780q0 -776 -674 -776q-670 0 -670 776zM322 1724q66 129 146.5 191.5t158.5 62.5q45 0 88 -12t85 -26.5t85 -26.5t88 -12q41 0 81 16t87 61l47 -51q-61 -129 -143 -192.5t-160 -63.5q-43 0 -87 12.5t-87 26.5t-86 26.5t-86 12.5 t-83 -16.5t-87 -59.5zM444 756q0 -133 15.5 -224.5t49.5 -146.5t89 -79.5t135 -24.5q82 0 139.5 23.5t91 78.5t49 146.5t15.5 226.5t-15.5 227t-50 147.5t-91 80t-138.5 24.5q-80 0 -135 -24.5t-89 -80t-49.5 -147.5t-15.5 -227z" />
<glyph unicode="&#xd6;" horiz-adv-x="1470" d="M63 756q0 780 670 780q674 0 674 -780q0 -776 -674 -776q-670 0 -670 776zM260 1831q0 102 46 147t151 45q104 0 151 -46t47 -146q0 -102 -47 -147.5t-151 -45.5t-150.5 45.5t-46.5 147.5zM444 756q0 -133 15.5 -224.5t49.5 -146.5t89 -79.5t135 -24.5q82 0 139.5 23.5 t91 78.5t49 146.5t15.5 226.5t-15.5 227t-50 147.5t-91 80t-138.5 24.5q-80 0 -135 -24.5t-89 -80t-49.5 -147.5t-15.5 -227zM805 1831q0 102 46 147t153 45q104 0 150 -46t46 -146q0 -102 -46 -147.5t-150 -45.5q-106 0 -152.5 45.5t-46.5 147.5z" />
<glyph unicode="&#xd7;" horiz-adv-x="1024" d="M61 481l277 277l-277 276l175 174l276 -276l274 276l177 -174l-277 -276l277 -277l-175 -174l-276 277l-276 -277z" />
<glyph unicode="&#xd8;" horiz-adv-x="1476" d="M10 0l183 231q-125 188 -125 525q0 780 669 780q244 0 400 -102l65 82h266l-182 -232q125 -188 125 -528q0 -776 -674 -776q-244 0 -395 100l-63 -80h-269zM446 756q0 -55 2.5 -102.5t6.5 -88.5l477 606q-35 35 -82 49.5t-113 14.5q-80 0 -136 -24.5t-90 -80 t-49.5 -147.5t-15.5 -227zM545 340q35 -33 82 -46t110 -13q82 0 138.5 23.5t90 78.5t49 146.5t15.5 226.5q0 53 -3 100t-7 88z" />
<glyph unicode="&#xd9;" horiz-adv-x="1464" d="M109 596v920h370v-908q0 -172 58.5 -246.5t195.5 -74.5t194.5 74.5t57.5 246.5v908h371v-920q0 -156 -32 -271.5t-105.5 -192.5t-192.5 -114.5t-293 -37.5t-294 37.5t-193.5 114.5t-105 192.5t-31.5 271.5zM340 2011h371l133 -364l-260 -21z" />
<glyph unicode="&#xda;" horiz-adv-x="1464" d="M109 596v920h370v-908q0 -172 58.5 -246.5t195.5 -74.5t194.5 74.5t57.5 246.5v908h371v-920q0 -156 -32 -271.5t-105.5 -192.5t-192.5 -114.5t-293 -37.5t-294 37.5t-193.5 114.5t-105 192.5t-31.5 271.5zM569 1645l133 366h371l-244 -385z" />
<glyph unicode="&#xdb;" horiz-adv-x="1464" d="M109 596v920h370v-908q0 -172 58.5 -246.5t195.5 -74.5t194.5 74.5t57.5 246.5v908h371v-920q0 -156 -32 -271.5t-105.5 -192.5t-192.5 -114.5t-293 -37.5t-294 37.5t-193.5 114.5t-105 192.5t-31.5 271.5zM354 1624v242l367 149l366 -149v-242l-366 150z" />
<glyph unicode="&#xdc;" horiz-adv-x="1464" d="M109 596v920h370v-908q0 -172 58.5 -246.5t195.5 -74.5t194.5 74.5t57.5 246.5v908h371v-920q0 -156 -32 -271.5t-105.5 -192.5t-192.5 -114.5t-293 -37.5t-294 37.5t-193.5 114.5t-105 192.5t-31.5 271.5zM250 1831q0 102 46 147t150 45t151.5 -46t47.5 -146 q0 -102 -47.5 -147.5t-151.5 -45.5t-150 45.5t-46 147.5zM795 1831q0 102 46 147t152 45q104 0 150.5 -46t46.5 -146q0 -102 -46.5 -147.5t-150.5 -45.5q-106 0 -152 45.5t-46 147.5z" />
<glyph unicode="&#xdd;" horiz-adv-x="1396" d="M-20 1516h413l256 -549l41 -121h19l41 121l258 549h407l-530 -1006v-510h-371v504zM561 1645l133 366h371l-244 -385z" />
<glyph unicode="&#xde;" horiz-adv-x="1304" d="M119 0v1516h373v-226h55q190 0 325.5 -30.5t223.5 -97t129 -169t41 -243.5q0 -139 -40 -240.5t-126 -166t-218 -95.5t-317 -31h-73v-217h-373zM492 518q2 0 18 -1t34.5 -1h35h20.5q84 0 139.5 11.5t88 38t46 71.5t13.5 113t-13.5 113.5t-46 72.5t-89 38t-144.5 11h-19.5 h-32t-31.5 -1t-19 -1v-465z" />
<glyph unicode="&#xdf;" horiz-adv-x="1462" d="M102 0v1161q0 260 142.5 381t445.5 121t446.5 -121t143.5 -381v-299h-205q-74 0 -112.5 -22.5t-38.5 -63.5q0 -45 35.5 -64.5t107.5 -29.5q66 -10 130.5 -26.5t116.5 -52.5t85 -98.5t33 -162.5q0 -176 -122 -269t-352 -93q-88 0 -186 14t-190 41v256q88 -27 184 -42.5 t182 -15.5q139 0 139 82q0 76 -137 95q-55 6 -118.5 18t-119 47t-91 101.5t-35.5 185.5q0 141 88 234.5t244 119.5v45q0 123 -52.5 174t-175.5 51t-174 -51t-51 -174v-1161h-363z" />
<glyph unicode="&#xe0;" horiz-adv-x="1112" d="M41 319q0 324 408 351l206 12q0 53 -8 88t-27.5 54.5t-55.5 27.5t-93 8q-29 0 -71 -3t-88 -7t-90 -10t-75 -13l-22 256q102 16 204.5 27.5t196.5 11.5q258 0 375 -86t117 -276v-760h-299l-27 133h-20q-59 -68 -140.5 -105.5t-173.5 -37.5q-147 0 -232 90t-85 239z M182 1653h373l133 -383l-258 -21zM403 354q1 -108 101 -108q37 0 79 18.5t72 40.5v176l-116 -12q-74 -8 -105 -33.5t-31 -81.5z" />
<glyph unicode="&#xe1;" horiz-adv-x="1112" d="M41 319q0 324 408 351l206 12q0 53 -8 88t-27.5 54.5t-55.5 27.5t-93 8q-29 0 -71 -3t-88 -7t-90 -10t-75 -13l-22 256q102 16 204.5 27.5t196.5 11.5q258 0 375 -86t117 -276v-760h-299l-27 133h-20q-59 -68 -140.5 -105.5t-173.5 -37.5q-147 0 -232 90t-85 239z M403 354q1 -108 101 -108q37 0 79 18.5t72 40.5v176l-116 -12q-74 -8 -105 -33.5t-31 -81.5zM426 1268l133 385h371l-246 -406z" />
<glyph unicode="&#xe2;" horiz-adv-x="1112" d="M41 319q0 324 408 351l206 12q0 53 -8 88t-27.5 54.5t-55.5 27.5t-93 8q-29 0 -71 -3t-88 -7t-90 -10t-75 -13l-22 256q102 16 204.5 27.5t196.5 11.5q258 0 375 -86t117 -276v-760h-299l-27 133h-20q-59 -68 -140.5 -105.5t-173.5 -37.5q-147 0 -232 90t-85 239z M211 1247v242l367 149l366 -149v-242l-366 150zM403 354q1 -108 101 -108q37 0 79 18.5t72 40.5v176l-116 -12q-74 -8 -105 -33.5t-31 -81.5z" />
<glyph unicode="&#xe3;" horiz-adv-x="1112" d="M41 319q0 324 408 351l206 12q0 53 -8 88t-27.5 54.5t-55.5 27.5t-93 8q-29 0 -71 -3t-88 -7t-90 -10t-75 -13l-22 256q102 16 204.5 27.5t196.5 11.5q258 0 375 -86t117 -276v-760h-299l-27 133h-20q-59 -68 -140.5 -105.5t-173.5 -37.5q-147 0 -232 90t-85 239z M145 1352q63 119 145.5 177t160.5 58q45 0 88 -16.5t85 -37t85 -36.5t86 -16q39 0 74.5 18.5t80.5 65.5l62 -76q-63 -123 -144.5 -179.5t-158.5 -56.5q-45 0 -88 16.5t-86 35t-86 35t-87 16.5q-39 0 -75.5 -16.5t-79.5 -63.5zM403 354q1 -108 101 -108q37 0 79 18.5t72 40.5 v176l-116 -12q-74 -8 -105 -33.5t-31 -81.5z" />
<glyph unicode="&#xe4;" horiz-adv-x="1112" d="M41 319q0 324 408 351l206 12q0 53 -8 88t-27.5 54.5t-55.5 27.5t-93 8q-29 0 -71 -3t-88 -7t-90 -10t-75 -13l-22 256q102 16 204.5 27.5t196.5 11.5q258 0 375 -86t117 -276v-760h-299l-27 133h-20q-59 -68 -140.5 -105.5t-173.5 -37.5q-147 0 -232 90t-85 239z M135 1430q0 90 41 131t135 41t137.5 -41t43.5 -131q0 -92 -43.5 -133.5t-137.5 -41.5t-135 41t-41 134zM403 354q1 -108 101 -108q37 0 79 18.5t72 40.5v176l-116 -12q-74 -8 -105 -33.5t-31 -81.5zM639 1430q0 90 42 131t136 41q92 0 135 -41t43 -131q0 -92 -43 -133.5 t-135 -41.5q-94 0 -136 41t-42 134z" />
<glyph unicode="&#xe5;" horiz-adv-x="1112" d="M41 319q0 324 408 351l206 12q0 53 -8 88t-27.5 54.5t-55.5 27.5t-93 8q-29 0 -71 -3t-88 -7t-90 -10t-75 -13l-22 256q102 16 204.5 27.5t196.5 11.5q258 0 375 -86t117 -276v-760h-299l-27 133h-20q-59 -68 -140.5 -105.5t-173.5 -37.5q-147 0 -232 90t-85 239z M295 1442q0 104 72.5 168.5t189.5 64.5q119 0 191.5 -64.5t72.5 -168.5t-73.5 -169t-190.5 -65t-189.5 64.5t-72.5 169.5zM403 354q1 -108 101 -108q37 0 79 18.5t72 40.5v176l-116 -12q-74 -8 -105 -33.5t-31 -81.5zM449 1442q0 -51 27.5 -80t80.5 -29q55 0 84 30t29 79 q0 51 -29 79.5t-84 28.5q-53 0 -80.5 -28.5t-27.5 -79.5z" />
<glyph unicode="&#xe6;" horiz-adv-x="1701" d="M43 322q0 324 406 348l208 12v41q0 82 -43 109.5t-153 27.5q-29 0 -70 -3t-86 -7t-87 -10t-71 -13l-22 256q225 39 405 39q223 0 312 -118h18q119 117 336 116q229 0 339 -125t110 -391q0 -59 -3.5 -94t-11.5 -70h-606q6 -109 48 -149.5t149 -40.5q70 0 170 13t204 40 l11 -260q-86 -29 -198 -47.5t-212 -18.5q-139 0 -233.5 43t-155.5 136h-19q-227 -166 -432 -166q-143 0 -228 90t-85 242zM403 356q1 -110 103 -110q35 0 76 17.5t80 45.5q-2 2 -3.5 27.5t-1.5 56.5v57.5v30.5l-116 -12q-76 -8 -107 -33.5t-31 -79.5zM1022 645h303 q-4 117 -34.5 166t-106.5 49q-80 0 -117 -49t-45 -166z" />
<glyph unicode="&#xe7;" horiz-adv-x="944" d="M57 553q0 295 138.5 433t418.5 138q72 0 140.5 -9t122.5 -25v-281q-61 10 -118 16t-106 6q-125 0 -177 -61t-52 -213q0 -154 52 -219.5t175 -65.5q66 0 118 5.5t108 17.5v-279q-43 -14 -100.5 -22t-119.5 -12q39 -59 55.5 -107.5t16.5 -103.5q0 -102 -65.5 -162 t-188.5 -60q-37 0 -87 6.5t-103 18.5v209q41 -10 79.5 -13t57.5 -3q39 0 55.5 17t16.5 44q0 63 -74 172q-182 43 -272.5 178t-90.5 375z" />
<glyph unicode="&#xe8;" horiz-adv-x="1097" d="M57 543q0 289 134.5 435t400.5 146q229 0 338.5 -126t109.5 -390q0 -59 -3 -95t-11 -71h-604q4 -57 16.5 -94t35 -58.5t57 -29.5t85.5 -8q72 0 174.5 15.5t200.5 39.5l10 -262q-86 -29 -197.5 -46t-213.5 -17q-532 0 -533 561zM174 1653h373l133 -383l-258 -21zM420 649 h303q-4 119 -36.5 167t-106.5 48q-78 0 -114 -47t-46 -168z" />
<glyph unicode="&#xe9;" horiz-adv-x="1097" d="M57 543q0 289 134.5 435t400.5 146q229 0 338.5 -126t109.5 -390q0 -59 -3 -95t-11 -71h-604q4 -57 16.5 -94t35 -58.5t57 -29.5t85.5 -8q72 0 174.5 15.5t200.5 39.5l10 -262q-86 -29 -197.5 -46t-213.5 -17q-532 0 -533 561zM420 649h303q-4 119 -36.5 167t-106.5 48 q-78 0 -114 -47t-46 -168zM442 1268l133 385h371l-246 -406z" />
<glyph unicode="&#xea;" horiz-adv-x="1097" d="M57 543q0 289 134.5 435t400.5 146q229 0 338.5 -126t109.5 -390q0 -59 -3 -95t-11 -71h-604q4 -57 16.5 -94t35 -58.5t57 -29.5t85.5 -8q72 0 174.5 15.5t200.5 39.5l10 -262q-86 -29 -197.5 -46t-213.5 -17q-532 0 -533 561zM213 1247v242l367 149l366 -149v-242 l-366 150zM420 649h303q-4 119 -36.5 167t-106.5 48q-78 0 -114 -47t-46 -168z" />
<glyph unicode="&#xeb;" horiz-adv-x="1097" d="M57 543q0 289 134.5 435t400.5 146q229 0 338.5 -126t109.5 -390q0 -59 -3 -95t-11 -71h-604q4 -57 16.5 -94t35 -58.5t57 -29.5t85.5 -8q72 0 174.5 15.5t200.5 39.5l10 -262q-86 -29 -197.5 -46t-213.5 -17q-532 0 -533 561zM131 1430q0 90 41 131t135 41t137 -41 t43 -131q0 -92 -43 -133.5t-137 -41.5t-135 41t-41 134zM420 649h303q-4 119 -36.5 167t-106.5 48q-78 0 -114 -47t-46 -168zM635 1430q0 90 42 131t136 41q92 0 135 -41t43 -131q0 -92 -43 -133.5t-135 -41.5q-94 0 -136 41t-42 134z" />
<glyph unicode="&#xec;" horiz-adv-x="567" d="M-98 1653h372l134 -383l-258 -21zM104 0v1106h361v-1106h-361z" />
<glyph unicode="&#xed;" horiz-adv-x="567" d="M102 0v1106h361v-1106h-361zM160 1268l133 385h371l-246 -406z" />
<glyph unicode="&#xee;" horiz-adv-x="569" d="M-49 1247v242l356 149l359 -149v-242l-359 150zM104 0v1106h361v-1106h-361z" />
<glyph unicode="&#xef;" horiz-adv-x="569" d="M-127 1430q0 90 42 131t136 41q92 0 136 -41t44 -131q0 -92 -44 -133.5t-136 -41.5q-94 0 -136 41t-42 134zM104 0v1106h361v-1106h-361zM358 1430q0 90 42 131t137 41q92 0 134 -41t42 -131q0 -92 -42 -133.5t-134 -41.5q-94 0 -136.5 41t-42.5 134z" />
<glyph unicode="&#xf0;" horiz-adv-x="1202" d="M57 551q0 283 134.5 429t390.5 146q47 0 88 -12t75 -41q-33 96 -73 182l-305 -30v219l184 18q-68 98 -160 193h371q29 -37 57.5 -76t57.5 -84l294 31v-219l-182 -19q63 -141 102 -317t39 -393q0 -299 -136 -450t-402 -151q-262 0 -398.5 146.5t-136.5 427.5zM420 553 q0 -92 7 -150.5t27.5 -92.5t53.5 -46t86 -12q51 0 84 13.5t53.5 47t28.5 92t8 148.5q0 86 -8 143.5t-28.5 92t-54.5 49t-85 14.5t-85 -12.5t-53.5 -46t-26.5 -92t-7 -148.5z" />
<glyph unicode="&#xf1;" horiz-adv-x="1202" d="M102 0v1106h304l20 -121h10q70 41 124 67.5t100.5 43t87 23.5t83.5 7q127 0 201 -79.5t74 -221.5v-825h-363v700q0 66 -24.5 94.5t-69.5 28.5q-41 0 -89 -15t-95 -40v-768h-363zM195 1352q63 119 145 177t160 58q45 0 88 -16.5t85 -37t85 -36.5t86 -16q39 0 74.5 18.5 t80.5 65.5l62 -76q-63 -123 -144 -179.5t-159 -56.5q-45 0 -88 16.5t-86 35t-86 35t-86 16.5q-39 0 -76 -16.5t-80 -63.5z" />
<glyph unicode="&#xf2;" horiz-adv-x="1187" d="M57 553q0 283 136.5 428t400.5 145t400 -145t136 -428t-136 -429.5t-400 -146.5t-400.5 146.5t-136.5 429.5zM205 1653h373l133 -383l-258 -21zM420 553q0 -92 8 -150.5t27.5 -92.5t53.5 -46t85 -12t85 12t53.5 46t27.5 92.5t8 150.5t-8 149.5t-28.5 91t-53.5 46 t-84 12.5t-85 -12.5t-53.5 -46t-27.5 -91t-8 -149.5z" />
<glyph unicode="&#xf3;" horiz-adv-x="1187" d="M57 553q0 283 136.5 428t400.5 145t400 -145t136 -428t-136 -429.5t-400 -146.5t-400.5 146.5t-136.5 429.5zM420 553q0 -92 8 -150.5t27.5 -92.5t53.5 -46t85 -12t85 12t53.5 46t27.5 92.5t8 150.5t-8 149.5t-28.5 91t-53.5 46t-84 12.5t-85 -12.5t-53.5 -46t-27.5 -91 t-8 -149.5zM461 1268l133 385h371l-246 -406z" />
<glyph unicode="&#xf4;" horiz-adv-x="1187" d="M57 553q0 283 136.5 428t400.5 145t400 -145t136 -428t-136 -429.5t-400 -146.5t-400.5 146.5t-136.5 429.5zM244 1247v242l366 149l367 -149v-242l-367 150zM420 553q0 -92 8 -150.5t27.5 -92.5t53.5 -46t85 -12t85 12t53.5 46t27.5 92.5t8 150.5t-8 149.5t-28.5 91 t-53.5 46t-84 12.5t-85 -12.5t-53.5 -46t-27.5 -91t-8 -149.5z" />
<glyph unicode="&#xf5;" horiz-adv-x="1187" d="M57 553q0 283 136.5 428t400.5 145t400 -145t136 -428t-136 -429.5t-400 -146.5t-400.5 146.5t-136.5 429.5zM178 1352q63 119 145.5 177t159.5 58q45 0 88 -16.5t85 -37t85 -36.5t86 -16q39 0 75 18.5t81 65.5l61 -76q-63 -123 -144 -179.5t-159 -56.5q-45 0 -88 16.5 t-86 35t-86 35t-86 16.5q-39 0 -75.5 -16.5t-79.5 -63.5zM420 553q0 -92 8 -150.5t27.5 -92.5t53.5 -46t85 -12t85 12t53.5 46t27.5 92.5t8 150.5t-8 149.5t-28.5 91t-53.5 46t-84 12.5t-85 -12.5t-53.5 -46t-27.5 -91t-8 -149.5z" />
<glyph unicode="&#xf6;" horiz-adv-x="1187" d="M57 553q0 283 136.5 428t400.5 145t400 -145t136 -428t-136 -429.5t-400 -146.5t-400.5 146.5t-136.5 429.5zM166 1430q0 90 41 131t135 41t137 -41t43 -131q0 -92 -43 -133.5t-137 -41.5t-135 41t-41 134zM420 553q0 -92 8 -150.5t27.5 -92.5t53.5 -46t85 -12t85 12 t53.5 46t27.5 92.5t8 150.5t-8 149.5t-28.5 91t-53.5 46t-84 12.5t-85 -12.5t-53.5 -46t-27.5 -91t-8 -149.5zM670 1430q0 90 42 131t136 41q92 0 135 -41t43 -131q0 -92 -43 -133.5t-135 -41.5q-94 0 -136 41t-42 134z" />
<glyph unicode="&#xf7;" horiz-adv-x="1069" d="M66 635v246h938v-246h-938zM381 375q0 78 44 115.5t114 37.5q68 0 111.5 -37.5t43.5 -115.5q0 -82 -43.5 -121t-111.5 -39q-70 0 -114 39t-44 121zM381 1139q0 82 44 120.5t114 38.5q68 0 111.5 -39.5t43.5 -119.5q0 -78 -43.5 -116t-111.5 -38q-70 0 -114 38t-44 116z " />
<glyph unicode="&#xf8;" horiz-adv-x="1200" d="M-4 0l162 180q-92 141 -92 373q0 279 133 426t403 147q195 0 322 -82l55 62h225l-160 -180q94 -141 95 -373q0 -281 -134.5 -428.5t-402.5 -147.5q-197 0 -326 82l-53 -59h-227zM428 485l295 332q-37 35 -121 35q-55 0 -90 -13.5t-53.5 -47t-24.5 -92t-6 -146.5v-68z M477 287q37 -35 125 -35q55 0 89 13.5t52.5 48t24.5 92t6 147.5v34.5t-2 33.5z" />
<glyph unicode="&#xf9;" horiz-adv-x="1200" d="M94 281v825h363v-711q0 -123 102 -123q70 0 178 58v776h363v-1106h-305l-21 117h-8q-66 -41 -113 -66.5t-88 -42t-81 -22.5t-87 -6q-141 0 -222 80.5t-81 220.5zM209 1653h373l133 -383l-258 -21z" />
<glyph unicode="&#xfa;" horiz-adv-x="1200" d="M94 281v825h363v-711q0 -123 102 -123q70 0 178 58v776h363v-1106h-305l-21 117h-8q-66 -41 -113 -66.5t-88 -42t-81 -22.5t-87 -6q-141 0 -222 80.5t-81 220.5zM463 1268l133 385h371l-246 -406z" />
<glyph unicode="&#xfb;" horiz-adv-x="1200" d="M94 281v825h363v-711q0 -123 102 -123q70 0 178 58v776h363v-1106h-305l-21 117h-8q-66 -41 -113 -66.5t-88 -42t-81 -22.5t-87 -6q-141 0 -222 80.5t-81 220.5zM250 1247v242l366 149l367 -149v-242l-367 150z" />
<glyph unicode="&#xfc;" horiz-adv-x="1200" d="M94 281v825h363v-711q0 -123 102 -123q70 0 178 58v776h363v-1106h-305l-21 117h-8q-66 -41 -113 -66.5t-88 -42t-81 -22.5t-87 -6q-141 0 -222 80.5t-81 220.5zM170 1430q0 90 41 131t135 41t137 -41t43 -131q0 -92 -43 -133.5t-137 -41.5t-135 41t-41 134zM674 1430 q0 90 42 131t136 41q92 0 135 -41t43 -131q0 -92 -43 -133.5t-135 -41.5q-94 0 -136 41t-42 134z" />
<glyph unicode="&#xfd;" horiz-adv-x="1179" d="M0 1075v31h377l164 -569l37 -175h22l37 175l166 569h373v-31l-545 -1526l-357 64v20l129 373zM465 1268l133 385h371l-246 -406z" />
<glyph unicode="&#xfe;" d="M100 -451v2106h363v-649q113 119 301 118q197 0 289 -132t92 -404q0 -299 -137.5 -452.5t-432.5 -153.5q-16 0 -45.5 2t-66.5 6v-441h-363zM463 244q29 -14 59 -20.5t53 -6.5q61 0 100.5 11.5t62 47t31.5 100t9 169.5q0 102 -7 165.5t-23.5 99.5t-46 48t-72.5 12 q-51 0 -83 -19.5t-50.5 -64.5t-25.5 -120.5t-7 -188.5v-233z" />
<glyph unicode="&#xff;" horiz-adv-x="1179" d="M0 1075v31h377l164 -569l37 -175h22l37 175l166 569h373v-31l-545 -1526l-357 64v20l129 373zM164 1430q0 90 41 131t135 41t137 -41t43 -131q0 -92 -43 -133.5t-137 -41.5t-135 41t-41 134zM668 1430q0 90 42 131t136 41q92 0 135 -41t43 -131q0 -92 -43 -133.5 t-135 -41.5q-94 0 -136 41t-42 134z" />
<glyph unicode="&#x152;" horiz-adv-x="2033" d="M61 758q0 383 181.5 579.5t515.5 196.5q66 0 121 -6t108 -12h959v-302h-590v-301h553v-286h-553v-326h608v-301h-977q-53 -10 -109.5 -14t-119.5 -4q-336 0 -516.5 194.5t-180.5 581.5zM436 756q0 -133 16.5 -223.5t57.5 -144.5t110 -77.5t173 -23.5q51 0 98 2t94 12v911 q-49 8 -96 12.5t-98 4.5q-102 0 -170 -24.5t-109 -80t-58.5 -145.5t-17.5 -223z" />
<glyph unicode="&#x153;" horiz-adv-x="1810" d="M57 553q0 283 136.5 428t400.5 145q225 0 346 -133h18q119 131 347 131q229 0 337.5 -126t108.5 -390q0 -59 -2 -94t-10 -72h-609q4 -55 16.5 -92t35 -58.5t58.5 -30.5t87 -9q72 0 174.5 15.5t200.5 39.5l10 -262q-86 -29 -197.5 -46t-211.5 -17q-225 0 -347 127h-18 q-119 -131 -344 -132q-264 0 -400.5 146.5t-136.5 429.5zM420 553q0 -92 8 -150.5t27.5 -92.5t53.5 -46t85 -12t85 12t53.5 46t27.5 92.5t8 150.5t-8 149.5t-28.5 91t-53.5 46t-84 12.5t-85 -12.5t-53.5 -46t-27.5 -91t-8 -149.5zM1130 647h304q-4 119 -36 168t-108 49 q-78 0 -115.5 -49t-44.5 -168z" />
<glyph unicode="&#x178;" horiz-adv-x="1396" d="M-20 1516h413l256 -549l41 -121h19l41 121l258 549h407l-530 -1006v-510h-371v504zM229 1831q0 102 46.5 147t150.5 45t151.5 -46t47.5 -146q0 -102 -47.5 -147.5t-151.5 -45.5t-150.5 45.5t-46.5 147.5zM774 1831q0 102 46 147t153 45q104 0 150 -46t46 -146 q0 -102 -46 -147.5t-150 -45.5q-106 0 -152.5 45.5t-46.5 147.5z" />
<glyph unicode="&#x2c6;" horiz-adv-x="884" d="M68 1247v242l366 149l367 -149v-242l-367 150z" />
<glyph unicode="&#x2dc;" horiz-adv-x="948" d="M33 1352q63 119 145 177t160 58q45 0 88 -16.5t85 -37t85 -36.5t86 -16q39 0 75 18.5t81 65.5l61 -76q-63 -123 -144 -179.5t-159 -56.5q-45 0 -88 16.5t-86 35t-86 35t-86 16.5q-39 0 -76 -16.5t-80 -63.5z" />
<glyph unicode="&#x2000;" horiz-adv-x="1018" />
<glyph unicode="&#x2001;" horiz-adv-x="2036" />
<glyph unicode="&#x2002;" horiz-adv-x="1018" />
<glyph unicode="&#x2003;" horiz-adv-x="2036" />
<glyph unicode="&#x2004;" horiz-adv-x="678" />
<glyph unicode="&#x2005;" horiz-adv-x="509" />
<glyph unicode="&#x2006;" horiz-adv-x="339" />
<glyph unicode="&#x2007;" horiz-adv-x="339" />
<glyph unicode="&#x2008;" horiz-adv-x="254" />
<glyph unicode="&#x2009;" horiz-adv-x="407" />
<glyph unicode="&#x200a;" horiz-adv-x="113" />
<glyph unicode="&#x2010;" horiz-adv-x="913" d="M94 440v267h725v-267h-725z" />
<glyph unicode="&#x2011;" horiz-adv-x="913" d="M94 440v267h725v-267h-725z" />
<glyph unicode="&#x2012;" horiz-adv-x="913" d="M94 440v267h725v-267h-725z" />
<glyph unicode="&#x2013;" horiz-adv-x="1224" d="M96 440v267h1032v-267h-1032z" />
<glyph unicode="&#x2014;" horiz-adv-x="1574" d="M96 440v267h1383v-267h-1383z" />
<glyph unicode="&#x2018;" horiz-adv-x="454" d="M63 1214q0 115 42 233t114 212l170 -12q-31 -70 -46 -151t-15 -163q0 -145 57 -293l-283 -16q-20 41 -29.5 89t-9.5 101z" />
<glyph unicode="&#x2019;" horiz-adv-x="446" d="M66 1036q31 70 46 152t15 162q0 76 -13.5 147.5t-43.5 147.5l282 14q20 -41 29.5 -89t9.5 -102q0 -115 -42 -232.5t-113 -211.5z" />
<glyph unicode="&#x201a;" horiz-adv-x="466" d="M61 -311q31 70 46.5 151.5t15.5 161.5q0 76 -13.5 147.5t-43.5 147.5l282 14q20 -41 29.5 -89t9.5 -101q0 -115 -42 -232.5t-114 -212.5z" />
<glyph unicode="&#x201c;" horiz-adv-x="919" d="M63 1214q0 115 42 233t114 212l170 -12q-31 -70 -46 -151t-15 -163q0 -145 57 -293l-283 -16q-20 41 -29.5 89t-9.5 101zM528 1214q0 115 42 233t114 212l170 -12q-31 -70 -46 -151t-15 -163q0 -145 57 -293l-283 -16q-20 41 -29.5 89t-9.5 101z" />
<glyph unicode="&#x201d;" horiz-adv-x="911" d="M66 1036q31 70 46 152t15 162q0 76 -13.5 147.5t-43.5 147.5l282 14q20 -41 29.5 -89t9.5 -102q0 -115 -42 -232.5t-113 -211.5zM530 1036q31 70 46.5 152t15.5 162q0 76 -13.5 147.5t-43.5 147.5l282 14q20 -41 29.5 -89t9.5 -102q0 -115 -42 -232.5t-114 -211.5z" />
<glyph unicode="&#x201e;" horiz-adv-x="931" d="M61 -311q31 70 46.5 151.5t15.5 161.5q0 76 -13.5 147.5t-43.5 147.5l282 14q20 -41 29.5 -89t9.5 -101q0 -115 -42 -232.5t-114 -212.5zM526 -311q31 70 46.5 151.5t15.5 161.5q0 76 -13.5 147.5t-44.5 147.5l283 14q20 -41 29.5 -89t9.5 -101q0 -115 -42 -232.5 t-114 -212.5z" />
<glyph unicode="&#x2022;" horiz-adv-x="722" d="M106 758q0 123 70 184.5t186 61.5q115 0 184.5 -61.5t69.5 -184.5t-69.5 -184.5t-184.5 -61.5q-117 0 -186.5 61.5t-69.5 184.5z" />
<glyph unicode="&#x2026;" horiz-adv-x="1703" d="M68 176q0 100 48 145.5t150 45.5q100 0 150.5 -45.5t50.5 -145.5t-49.5 -146t-151.5 -46q-100 0 -149 45t-49 147zM655 176q0 100 48.5 145.5t150.5 45.5q100 0 150.5 -45.5t50.5 -145.5t-49.5 -146t-151.5 -46q-100 0 -149.5 45t-49.5 147zM1237 176q0 100 48 145.5 t151 45.5q100 0 150 -45.5t50 -145.5t-49 -146t-151 -46q-100 0 -149.5 45t-49.5 147z" />
<glyph unicode="&#x202f;" horiz-adv-x="407" />
<glyph unicode="&#x2039;" horiz-adv-x="718" d="M49 549v8l252 487h363l-250 -487v-8l250 -488h-363z" />
<glyph unicode="&#x203a;" horiz-adv-x="718" d="M55 61l250 488v8l-250 487h363l252 -487v-8l-252 -488h-363z" />
<glyph unicode="&#x205f;" horiz-adv-x="509" />
<glyph unicode="&#x20ac;" horiz-adv-x="1290" d="M57 483v201h148q-2 16 -2 34.5v37.5v36.5t2 36.5h-148v201h172q119 506 707 506q92 0 165 -11.5t126 -27.5l-72 -287q-43 6 -85 10.5t-81 4.5q-84 0 -148.5 -9.5t-110.5 -33t-75.5 -60.5t-48.5 -92h479l-41 -201h-466v-145h440l-41 -201h-371q35 -111 125 -152.5 t260 -41.5q121 0 230 28v-301q-53 -18 -126 -27t-155 -9q-301 0 -476 126.5t-235 376.5h-172z" />
<glyph unicode="&#x2122;" horiz-adv-x="1902" d="M51 1323v193h709v-193h-240v-668h-229v668h-240zM848 655v861h309l160 -490l160 490h309v-861h-213v547l-162 -506h-186l-164 506v-547h-213z" />
<glyph unicode="&#x25fc;" horiz-adv-x="1105" d="M0 0v1106h1106v-1106h-1106z" />
</font>
</defs>
</svg>
