<?xml version="1.0" standalone="no"?>
<!DOCTYPE svg PUBLIC "-//W3C//DTD SVG 1.1//EN" "http://www.w3.org/Graphics/SVG/1.1/DTD/svg11.dtd" >
<svg xmlns="http://www.w3.org/2000/svg">
<metadata></metadata>
<defs>
<font id="encode_sans_normalblack" horiz-adv-x="1271" >
<font-face units-per-em="2048" ascent="1638" descent="-410" />
<missing-glyph horiz-adv-x="409" />
<glyph unicode="&#xfb01;" horiz-adv-x="1718" d="M29 731v375h239v47q0 141 41 239.5t132 160t235.5 90t351.5 28.5l21 -321q-178 -2 -255 -44t-77 -141v-59h297v-375h-297v-731h-451v731h-237zM1149 1452q0 123 54 177t183 54q131 0 185.5 -57t54.5 -174q0 -119 -53.5 -176t-186.5 -57q-129 0 -183 55t-54 178zM1161 0 v1106h451v-1106h-451z" />
<glyph unicode="&#xfb02;" horiz-adv-x="1718" d="M29 731v375h239v47q0 141 41 239.5t132 160t235.5 90t351.5 28.5l21 -321q-178 -2 -255 -44t-77 -141v-59h297v-375h-297v-731h-451v731h-237zM1161 0v1655h451v-1655h-451z" />
<glyph unicode="&#xfb03;" horiz-adv-x="2715" d="M29 731v375h239v47q0 141 41 239.5t132 160t235.5 90t351.5 28.5l21 -321q-178 -2 -255 -44t-77 -141v-59h547v47q0 141 41 239.5t132 160t235.5 90t350.5 28.5l21 -321q-178 -2 -255 -44t-77 -141v-59h297v-375h-297v-731h-450v731h-545v-731h-451v731h-237zM2146 1452 q0 123 54.5 177t183.5 54q131 0 185 -57t54 -174q0 -119 -53 -176t-186 -57q-129 0 -183.5 55t-54.5 178zM2159 0v1106h450v-1106h-450z" />
<glyph unicode="&#xfb04;" horiz-adv-x="2715" d="M29 731v375h239v47q0 141 41 239.5t132 160t235.5 90t351.5 28.5l21 -321q-178 -2 -255 -44t-77 -141v-59h547v47q0 141 41 239.5t132 160t235.5 90t350.5 28.5l21 -321q-178 -2 -255 -44t-77 -141v-59h297v-375h-297v-731h-450v731h-545v-731h-451v731h-237zM2159 0 v1655h450v-1655h-450z" />
<glyph horiz-adv-x="0" />
<glyph unicode="&#xd;" horiz-adv-x="649" />
<glyph horiz-adv-x="0" />
<glyph horiz-adv-x="0" />
<glyph unicode=" "  horiz-adv-x="409" />
<glyph unicode="&#x09;" horiz-adv-x="409" />
<glyph unicode="&#xa0;" horiz-adv-x="409" />
<glyph unicode="!" horiz-adv-x="663" d="M109 1495v21h446v-21l-86 -907v-21h-272v21zM115 184q0 98 56 151.5t161 53.5q104 0 160.5 -53t56.5 -152q0 -98 -56.5 -151t-160.5 -53t-160.5 53t-56.5 151z" />
<glyph unicode="&#x22;" horiz-adv-x="1001" d="M98 983v672h351v-8l-107 -664h-244zM600 983v672h350v-8l-106 -664h-244z" />
<glyph unicode="#" horiz-adv-x="1406" d="M82 350v268h217l23 269h-240v274h262l29 355h295l-29 -355h215l29 355h295l-29 -355h178v-274h-201l-22 -269h223v-268h-244l-28 -350h-295l28 350h-215l-28 -350h-295l29 350h-197zM594 618h215l22 269h-215z" />
<glyph unicode="$" horiz-adv-x="1388" d="M78 41v369q166 -37 301 -56.5t252 -19.5q123 0 173 22.5t50 75.5q0 59 -56.5 87t-176.5 44q-129 18 -228.5 54t-167 96.5t-101.5 147.5t-34 208q0 166 99.5 277.5t285.5 158.5v307h410v-282q72 -6 157.5 -19.5t206.5 -35.5v-365q-53 16 -112.5 28.5t-120 21.5 t-118.5 14.5t-107 5.5q-219 0 -220 -101q0 -66 61.5 -100.5t196.5 -56.5q129 -23 223.5 -59t157 -89t93 -128t30.5 -175q0 -397 -428 -475v-293h-409v281q-104 8 -212 21t-206 36z" />
<glyph unicode="%" horiz-adv-x="2420" d="M55 1051q0 244 125 365.5t352 121.5q229 0 353.5 -122t124.5 -365q0 -244 -124.5 -364t-353.5 -120t-353 120t-124 364zM373 1051q0 -129 36.5 -172t122.5 -43q84 0 121 43t37 172q0 66 -9 107.5t-27.5 66t-48.5 34t-73 9.5q-86 0 -122.5 -44t-36.5 -173zM666 0l706 1516 h379l-707 -1516h-378zM1411 465q0 244 125 364.5t352 120.5q229 0 353 -120.5t124 -364.5t-124 -364.5t-353 -120.5t-353 120.5t-124 364.5zM1729 465q0 -129 36.5 -173t122.5 -44q43 0 73 9t48.5 33.5t27.5 66.5t9 108q0 129 -37 173t-121 44q-86 0 -122.5 -44t-36.5 -173z " />
<glyph unicode="&#x26;" horiz-adv-x="1689" d="M74 422q0 143 83 247.5t228 141.5q-98 90 -139 168t-41 160q0 92 43 166.5t123 127t194.5 80t255.5 27.5q104 0 218 -14.5t231 -42.5l6 -10l-43 -299h-19q-84 27 -178 42t-166 15q-104 0 -152 -31t-48 -98q0 -127 377 -330l77 -43v162l406 14v-200q0 -98 -19 -185 l195 -104v-27l-162 -317h-20l-191 114q-102 -98 -248.5 -151t-332.5 -53q-156 0 -281 30.5t-213 88t-136 139.5t-48 182zM541 449q0 -74 66.5 -120t176.5 -46q162 0 246 90l-156 94q-63 37 -118.5 71.5t-104.5 69.5q-111 -41 -110 -159z" />
<glyph unicode="'" horiz-adv-x="499" d="M98 983v672h351v-8l-107 -664h-244z" />
<glyph unicode="(" horiz-adv-x="757" d="M57 725q0 281 78 551t236 502h391v-9q-158 -231 -254 -498t-96 -546t96 -546t254 -498v-9h-391q-158 231 -236 501.5t-78 551.5z" />
<glyph unicode=")" horiz-adv-x="757" d="M-4 -319q158 231 254 498t96 546t-96 546t-254 498v9h391q158 -231 235.5 -501.5t77.5 -551.5t-77.5 -551t-235.5 -502h-391v9z" />
<glyph unicode="*" horiz-adv-x="1032" d="M53 1290l74 230l141 -45l189 -127l-62 221v147h242v-147l-64 -219l189 125l141 45l74 -230l-139 -47l-224 -8l177 -137l88 -121l-197 -141l-88 118l-80 217l-78 -217l-88 -118l-196 141l88 121l176 137l-223 8z" />
<glyph unicode="+" horiz-adv-x="1083" d="M57 621v274h349v317h274v-317h348v-274h-348v-318h-274v318h-349z" />
<glyph unicode="," horiz-adv-x="643" d="M39 -297l86 725h450l-202 -745z" />
<glyph unicode="-" horiz-adv-x="1130" d="M100 412v323h930v-323h-930z" />
<glyph unicode="." horiz-adv-x="618" d="M63 209q0 119 66 173t180 54q115 0 180.5 -54t65.5 -173t-65.5 -174t-180.5 -55t-180.5 55t-65.5 174z" />
<glyph unicode="/" horiz-adv-x="970" d="M41 -246l504 1762h385l-502 -1762h-387z" />
<glyph unicode="0" horiz-adv-x="1542" d="M74 756q0 389 183 584.5t515 195.5t514 -195.5t182 -584.5t-182 -582.5t-514 -193.5t-515 193.5t-183 582.5zM530 756q0 -123 13.5 -203t42 -127t74.5 -65.5t112 -18.5q63 0 108.5 18.5t74 64.5t43 127t14.5 204q0 125 -14.5 205.5t-43 128t-73.5 66t-109 18.5 q-66 0 -112 -18.5t-74.5 -66t-42 -128t-13.5 -205.5z" />
<glyph unicode="1" horiz-adv-x="1042" d="M10 1231l4 18l518 267h349v-1516h-461v1036h-8l-328 -67h-23z" />
<glyph unicode="2" horiz-adv-x="1339" d="M66 0v233q0 129 42 218.5t109.5 153t154.5 107.5t177 83q55 23 100 46t77 50t50.5 59.5t18.5 73.5q0 78 -61.5 112.5t-198.5 34.5q-51 0 -106.5 -5t-108 -12t-98.5 -15.5t-83 -14.5l-28 361q172 27 299 39t233 12q315 0 462.5 -114.5t147.5 -348.5q0 -106 -31.5 -189 t-85 -146.5t-121 -110.5t-141.5 -84q-121 -61 -190.5 -93t-69.5 -69v-27h635v-354h-1183z" />
<glyph unicode="3" horiz-adv-x="1284" d="M88 8v340h8q27 -6 71 -13t94 -12.5t99.5 -8.5t88.5 -3q90 0 147 6.5t89 22.5t43 45t11 74q0 47 -13 76.5t-49 47t-100.5 23.5t-164.5 6h-140v312h138q90 0 147 5t89 20.5t43 42t11 69.5q0 37 -11 62.5t-39.5 40t-77 20.5t-121.5 6q-66 0 -165.5 -10.5t-189.5 -24.5h-8 v342q41 8 99.5 15.5t120 12.5t117.5 8t97 3q330 0 489.5 -100.5t159.5 -311.5q0 -123 -69.5 -209t-198.5 -127v-16q143 -31 226 -125t83 -223q0 -221 -173 -335t-511 -114q-61 0 -126.5 2.5t-125 7.5t-109.5 11t-79 12z" />
<glyph unicode="4" horiz-adv-x="1454" d="M23 539v24l501 973h8l463 -35l21 -39l-535 -852v-8h293l86 324h330v-324h225v-342h-225v-260h-453v260h-674z" />
<glyph unicode="5" horiz-adv-x="1269" d="M88 8v340h98q72 -14 134.5 -19t125.5 -5q147 0 219 30.5t72 130.5q0 43 -21.5 70t-71.5 43t-135 22.5t-212 6.5h-156l-41 39l64 850h954v-353h-618l-11 -215q180 -2 316.5 -26.5t227.5 -80t137.5 -146.5t46.5 -228q0 -143 -60.5 -238.5t-161 -152t-227.5 -80t-260 -23.5 q-100 0 -204.5 10.5t-215.5 24.5z" />
<glyph unicode="6" horiz-adv-x="1458" d="M74 688q0 848 880 848q82 0 171 -10t190 -31l-55 -319q-92 16 -160 23t-127 7q-199 0 -299.5 -71.5t-128.5 -243.5q59 41 141 64.5t180 23.5q125 0 225.5 -33t172 -92t110.5 -145t39 -191q0 -125 -46 -225t-132 -170t-208.5 -106.5t-278.5 -36.5q-324 0 -499 180 t-175 528zM530 623q8 -170 59.5 -244t158.5 -74q102 0 149 48t47 153q0 102 -46 146t-150 44q-61 0 -122 -21.5t-96 -51.5z" />
<glyph unicode="7" horiz-adv-x="1200" d="M33 1477l45 39h1050l60 -246v-27l-518 -1241l-99 -55l-391 53v43l502 1087h-635z" />
<glyph unicode="8" horiz-adv-x="1456" d="M68 389q0 246 241 369q-82 53 -134 138t-52 228q0 92 45 168t128 129.5t200.5 83t261.5 29.5q137 0 246.5 -29.5t185.5 -83t116 -129t40 -168.5q0 -109 -40 -179.5t-147 -133.5q47 -25 88 -57.5t71 -76.5t47 -102.5t17 -132.5q0 -106 -35.5 -191t-113.5 -144.5t-202 -91 t-298 -31.5q-180 0 -306 27.5t-206 79.5t-116.5 128t-36.5 170zM498 446q0 -82 64.5 -123.5t170.5 -41.5t162.5 34.5t56.5 102.5q0 53 -24.5 88t-66.5 59.5t-99 41t-121 32.5l-16 4q-57 -39 -92 -87t-35 -110zM526 1098q0 -45 24.5 -75t66.5 -51.5t98.5 -35.5t122.5 -29 q55 43 79.5 91.5t24.5 95.5q0 66 -57.5 104.5t-151.5 38.5t-150.5 -36.5t-56.5 -102.5z" />
<glyph unicode="9" horiz-adv-x="1458" d="M45 997q0 125 46 225.5t132 170t209 106.5t279 37q324 0 498.5 -180t174.5 -529q0 -848 -880 -847q-82 0 -171 10t-190 30l56 320q92 -16 159.5 -23.5t126.5 -7.5q199 0 299.5 72t128.5 244q-59 -41 -141 -64.5t-180 -23.5q-125 0 -225.5 32.5t-172 92t-110.5 145.5 t-39 190zM514 1010q0 -102 46.5 -146.5t150.5 -44.5q61 0 121.5 21.5t95.5 52.5q-8 170 -59.5 243.5t-157.5 73.5q-102 0 -149.5 -48t-47.5 -152z" />
<glyph unicode=":" horiz-adv-x="659" d="M84 209q0 119 65.5 173t180.5 54t180 -54t65 -173t-65 -174t-180 -55t-180.5 55t-65.5 174zM84 901q0 119 65.5 173t180.5 54t180 -54t65 -173t-65 -174t-180 -55t-180.5 55t-65.5 174z" />
<glyph unicode=";" horiz-adv-x="665" d="M41 -297l86 725h451l-203 -745zM98 901q0 119 65.5 173t180.5 54t180.5 -54t65.5 -173t-65.5 -174t-180.5 -55t-180.5 55t-65.5 174z" />
<glyph unicode="&#x3c;" horiz-adv-x="1161" d="M57 608v271l990 424v-302l-603 -258l603 -258v-301z" />
<glyph unicode="=" horiz-adv-x="1126" d="M109 342v283h909v-283h-909zM109 799v282h909v-282h-909z" />
<glyph unicode="&#x3e;" horiz-adv-x="1163" d="M119 184v301l602 258l-602 258v302l989 -424v-271z" />
<glyph unicode="?" horiz-adv-x="1024" d="M61 1489q102 20 193.5 29.5t194.5 9.5q254 0 389 -104.5t135 -299.5q0 -166 -98.5 -272.5t-278.5 -138.5l-18 -178v-29h-285v26l-35 359q150 29 227.5 75t77.5 107q0 66 -50 90.5t-153 24.5q-37 0 -76.5 -3t-77.5 -7t-73 -9.5t-61 -11.5zM227 184q0 98 56.5 151.5 t160.5 53.5t161 -53t57 -152q0 -98 -57 -151t-161 -53t-160.5 53t-56.5 151z" />
<glyph unicode="@" horiz-adv-x="1826" d="M68 530q0 199 61 354.5t176 264t275.5 166t361.5 57.5q197 0 347.5 -51t251.5 -147.5t153.5 -235.5t52.5 -315q0 -248 -110.5 -382.5t-321.5 -134.5q-66 0 -109 22t-69.5 49.5t-38 55t-13.5 39.5h-10q-47 -76 -137 -116.5t-193 -40.5q-129 0 -206.5 94t-77.5 270 q0 115 35.5 211t101.5 166t160 109t211 39q82 0 174 -23t178 -57l-84 -420q0 -20 -5 -40t-5 -38q0 -45 22.5 -72.5t79.5 -27.5q74 0 117 76.5t43 220.5q0 242 -137.5 372.5t-409.5 130.5q-141 0 -255 -39.5t-193.5 -115.5t-122.5 -187.5t-43 -253.5q0 -139 41 -242.5 t115.5 -173t178 -104.5t228.5 -35q78 0 184.5 20.5t235.5 57.5l67 -235q-143 -41 -267 -63.5t-220 -22.5q-182 0 -332.5 51t-260.5 152.5t-170 250t-60 344.5zM719 479q0 -72 22.5 -110.5t71.5 -38.5q72 2 127 55t76 158l47 241q-23 6 -44.5 8.5t-43.5 2.5q-55 0 -102.5 -25 t-81 -66.5t-53 -99t-19.5 -125.5z" />
<glyph unicode="A" horiz-adv-x="1597" d="M-10 0v23l467 1493h684l467 -1493v-23h-445l-92 309h-547l-90 -309h-444zM627 659h344l-64 226l-90 317h-37l-92 -321z" />
<glyph unicode="B" horiz-adv-x="1529" d="M125 10v1495q164 16 310.5 23.5t289.5 7.5q365 0 533.5 -105.5t168.5 -330.5q0 -246 -262 -316v-8q152 -29 231 -120t79 -236q0 -225 -167.5 -332.5t-519.5 -107.5q-166 0 -325.5 7t-337.5 23zM563 307q12 -2 25.5 -4t36 -3t59.5 -1h98q121 0 177.5 40t56.5 126 t-52.5 119.5t-183.5 33.5h-217v-311zM563 911h185q125 0 174 35t49 121q0 82 -49.5 117t-169.5 35q-109 0 -189 -13v-295z" />
<glyph unicode="C" horiz-adv-x="1263" d="M63 756q0 403 191.5 595.5t579.5 192.5q72 0 156.5 -7t207.5 -24v-362q-68 6 -114 10t-79.5 6t-59 3t-52.5 1q-111 0 -179.5 -15t-107.5 -60t-53 -127t-14 -213q0 -129 14 -209t53 -124t107.5 -60.5t175.5 -16.5q35 0 78 2t86 6t80.5 8.5t64.5 10.5v-365 q-76 -16 -160 -26.5t-168 -10.5q-410 0 -608.5 191.5t-198.5 593.5z" />
<glyph unicode="D" horiz-adv-x="1642" d="M125 4v1509q197 10 332 16.5t237 6.5q233 0 400.5 -45t275 -139.5t158.5 -242.5t51 -353q0 -211 -53 -358.5t-170 -241t-302.5 -136.5t-449.5 -43q-125 0 -254 7.5t-225 19.5zM584 354q47 -8 101.5 -11t105.5 -3q92 0 153.5 18.5t98 66.5t51 128t14.5 203 q0 121 -16.5 200.5t-56.5 128t-105.5 69t-163.5 20.5q-35 0 -76 -2.5t-106 -6.5v-811z" />
<glyph unicode="E" horiz-adv-x="1400" d="M125 0v1516h1188v-353h-727v-229h649v-352h-649v-228h747v-354h-1208z" />
<glyph unicode="F" horiz-adv-x="1355" d="M125 0v1516h1184v-353h-723v-284h645v-355h-645v-524h-461z" />
<glyph unicode="G" horiz-adv-x="1488" d="M61 756q0 788 850 788q117 0 245 -13t220 -36v-365q-139 23 -247.5 32t-180.5 9q-127 0 -208 -16t-126 -62t-61 -127t-16 -210q0 -127 14 -206t52 -125t106.5 -62.5t177.5 -16.5h43.5t48.5 2v422h420v-717q-135 -35 -278.5 -58.5t-252.5 -23.5q-412 0 -609.5 192.5 t-197.5 592.5z" />
<glyph unicode="H" horiz-adv-x="1732" d="M125 0v1516h461v-562h561v562h461v-1516h-461v600h-561v-600h-461z" />
<glyph unicode="I" horiz-adv-x="712" d="M125 0v1516h461v-1516h-461z" />
<glyph unicode="J" horiz-adv-x="710" d="M-25 -322q45 102 75 190.5t47.5 173.5t24.5 174t7 196v1104h463v-1141q0 -109 -16.5 -206t-55.5 -193.5t-100.5 -200t-151.5 -224.5z" />
<glyph unicode="K" horiz-adv-x="1572" d="M125 0v1516h461v-578h170l295 578h510l-379 -660l-119 -55v-19l123 -57l411 -725h-510l-305 586h-196v-586h-461z" />
<glyph unicode="L" horiz-adv-x="1234" d="M125 0v1516h461v-1164h622v-352h-1083z" />
<glyph unicode="M" horiz-adv-x="2125" d="M125 0v1516h629l225 -617l78 -305h12l80 305l225 617h627v-1516h-406v1018h-18l-125 -410l-207 -547h-364l-207 547l-125 410h-19v-1018h-405z" />
<glyph unicode="N" horiz-adv-x="1708" d="M125 0v1516h362l551 -668l123 -170h21v838h401v-1516h-362l-531 647l-143 193h-21v-840h-401z" />
<glyph unicode="O" horiz-adv-x="1683" d="M63 756q0 387 197 583.5t582 196.5q383 0 580.5 -197.5t197.5 -582.5q0 -383 -197.5 -579.5t-580.5 -196.5q-385 0 -582 196.5t-197 579.5zM535 756q0 -125 14 -205t49 -126t94.5 -63.5t149.5 -17.5q92 0 151.5 17.5t94 62.5t48 125t13.5 207q0 123 -15.5 203.5t-50 128 t-94 65.5t-147.5 18t-147.5 -18t-94.5 -65.5t-50 -127t-15 -204.5z" />
<glyph unicode="P" horiz-adv-x="1501" d="M125 0v1505q266 31 502 31q223 0 381.5 -31.5t261 -100.5t150.5 -175.5t48 -255.5q0 -567 -827 -567h-55v-406h-461zM586 770q31 -4 63.5 -7t67.5 -3q82 0 137 10t87 34.5t45 65.5t13 103q0 61 -11 101t-40.5 63.5t-82 34t-134.5 10.5q-33 0 -77 -2t-68 -6v-404z" />
<glyph unicode="Q" horiz-adv-x="1683" d="M61 756q0 186 52.5 331.5t152 245t244.5 151.5t332 52q375 0 578.5 -201.5t203.5 -578.5q0 -152 -39 -271.5t-113.5 -202.5t-181 -128t-241.5 -45q-10 0 -19.5 1t-19.5 1v-29q117 -23 195.5 -37t141 -23.5t118 -15.5t124.5 -14l-104 -365q-276 76 -489.5 148.5 t-371 149.5t-266 162t-174 185.5t-94.5 219t-29 264.5zM528 756q0 -117 15.5 -196t52.5 -128t96.5 -69.5t149.5 -20.5t150.5 19.5t96 67.5t51 127t15.5 200q0 119 -15.5 198.5t-52 129t-97 71t-148.5 21.5t-147.5 -21.5t-96.5 -72t-53.5 -130.5t-16.5 -196z" />
<glyph unicode="R" horiz-adv-x="1536" d="M125 0v1505q264 31 502 31q221 0 380.5 -30.5t262 -95t150.5 -167t48 -244.5q0 -317 -286 -446l364 -553h-516l-250 469q-31 -4 -62.5 -4h-66.5h-65v-465h-461zM586 823q23 -6 51.5 -8t79.5 -2q82 0 137 9t87 30.5t45 57.5t13 89t-12 89t-42 56.5t-82 29t-132 8.5 q-29 0 -73 -2t-72 -6v-351z" />
<glyph unicode="S" horiz-adv-x="1372" d="M72 41v369q166 -37 301 -56.5t252 -19.5q123 0 173 22.5t50 75.5q0 59 -56.5 87t-177.5 44q-129 18 -228 54t-166.5 96.5t-101.5 147.5t-34 208q0 221 171 344t478 123q53 0 105.5 -3t113 -10t131 -18.5t160.5 -29.5v-365q-53 16 -112.5 28.5t-120 21.5t-118.5 14.5 t-108 5.5q-219 0 -219 -101q0 -66 61.5 -100.5t196.5 -56.5q129 -23 223.5 -59t157 -89t93 -128t30.5 -175q0 -496 -657 -496q-66 0 -140.5 4.5t-153.5 13.5t-157 20.5t-147 27.5z" />
<glyph unicode="T" horiz-adv-x="1366" d="M41 1161v355h1284v-355h-412v-1161h-460v1161h-412z" />
<glyph unicode="U" horiz-adv-x="1695" d="M111 631v889h460v-904q0 -129 64.5 -199.5t212.5 -70.5q150 0 213 70.5t63 199.5v904h461v-889q0 -164 -37 -286t-123 -204t-227 -121.5t-350 -39.5t-350.5 40.5t-227.5 121.5t-122.5 203t-36.5 286z" />
<glyph unicode="V" horiz-adv-x="1579" d="M-12 1516h489l232 -764l73 -326h23l76 326l229 764h479l-493 -1516h-613z" />
<glyph unicode="W" horiz-adv-x="2324" d="M12 1516h496l135 -814l29 -256h30l46 256l190 814h453l190 -814l45 -256h29l31 256l135 814h491l-354 -1516h-604l-135 578l-45 387h-23l-45 -387l-135 -578h-604z" />
<glyph unicode="X" horiz-adv-x="1579" d="M-39 0l537 797l-494 719h520l191 -322l65 -121h19l63 121l201 322h514l-512 -736l557 -780h-518l-248 397l-59 107h-17l-55 -107l-248 -397h-516z" />
<glyph unicode="Y" horiz-adv-x="1564" d="M-27 1516h502l232 -465l65 -168h21l63 168l234 465h497l-571 -1031v-485h-461v471z" />
<glyph unicode="Z" horiz-adv-x="1413" d="M61 0v338l699 803v20h-668v355h1225v-330l-701 -811v-21h742v-354h-1297z" />
<glyph unicode="[" horiz-adv-x="808" d="M145 -328v2106h619v-283h-277v-1540h277v-283h-619z" />
<glyph unicode="\" horiz-adv-x="970" d="M41 1516h387l502 -1762h-385z" />
<glyph unicode="]" horiz-adv-x="808" d="M45 -45h279v1540h-279v283h621v-2106h-621v283z" />
<glyph unicode="^" horiz-adv-x="1157" d="M53 985l320 631h413l318 -631h-313l-207 377h-9l-206 -377h-316z" />
<glyph unicode="_" horiz-adv-x="1392" d="M80 -117h1235v-321h-1235v321z" />
<glyph unicode="`" horiz-adv-x="671" d="M8 1655h463l127 -389l-322 -21z" />
<glyph unicode="a" d="M51 324q0 172 103.5 256t318.5 100l250 16q-2 33 -11.5 54.5t-31 35t-59 19.5t-95.5 6q-41 0 -88 -3t-97 -8t-99 -11.5t-92 -14.5l-29 305q123 23 243.5 33t225.5 10q299 0 442.5 -93t143.5 -292v-737h-369l-39 133h-20q-72 -76 -165.5 -109.5t-191.5 -33.5 q-166 0 -253 89t-87 245zM506 377q0 -88 86 -88q39 0 79 13t54 30v145l-111 -10q-61 -6 -84.5 -24.5t-23.5 -65.5z" />
<glyph unicode="b" horiz-adv-x="1417" d="M104 53v1602h451v-662q55 68 139 99.5t191 31.5q473 0 473 -540q0 -295 -173.5 -450t-484.5 -157q-53 0 -106 2.5t-122 10.5t-158 23.5t-210 39.5zM555 291q25 -8 58.5 -12.5t80.5 -4.5q68 0 110 10.5t64.5 40t29.5 83t7 141.5q0 74 -6 122t-24.5 74.5t-50 37t-83.5 10.5 q-102 0 -144 -47.5t-42 -167.5v-287z" />
<glyph unicode="c" horiz-adv-x="1116" d="M59 553q0 291 146.5 431t445.5 140q109 0 210.5 -10t176.5 -27v-348q-96 10 -180 16.5t-162 6.5q-109 0 -150.5 -44t-41.5 -161q0 -119 42 -166t146 -47q109 0 187.5 5t158.5 18v-347q-76 -18 -177 -28t-210 -10q-299 0 -445.5 140t-146.5 431z" />
<glyph unicode="d" horiz-adv-x="1421" d="M59 520q0 150 46.5 263.5t131.5 189.5t206.5 114.5t273.5 38.5q37 0 72.5 -2t72.5 -6v537h451v-1655h-395l-35 137h-17q-55 -84 -136 -122t-198 -38q-473 0 -473 543zM512 555q0 -76 6 -125t24.5 -76.5t50.5 -39t83 -11.5q100 0 143 48t43 173v279q-33 8 -71.5 13 t-85.5 5q-61 0 -99.5 -9t-59 -38t-27.5 -81t-7 -138z" />
<glyph unicode="e" d="M59 549q0 575 621 575q530 0 530 -493q0 -53 -5 -98.5t-17 -90.5h-682q6 -43 18.5 -67.5t35 -37.5t59 -17.5t92.5 -4.5q49 0 108.5 3.5t119.5 9.5t116.5 14t99.5 18l10 -315q-106 -29 -236 -46t-257 -17q-612 0 -613 567zM504 659h313q-4 88 -39 124t-119 36 q-78 0 -112.5 -33.5t-42.5 -126.5z" />
<glyph unicode="f" horiz-adv-x="1038" d="M29 731v375h239v47q0 141 41 239.5t132 160t235.5 90t351.5 28.5l21 -321q-178 -2 -255 -44t-77 -141v-59h297v-375h-297v-731h-451v731h-237z" />
<glyph unicode="g" horiz-adv-x="1417" d="M61 543q0 143 46.5 252.5t131.5 183.5t206.5 110.5t273.5 36.5q51 0 103 -4t120 -15t158 -32.5t215 -58.5v-866q0 -164 -55.5 -278t-148.5 -185.5t-218 -104.5t-264 -33q-63 0 -132 3.5t-134.5 9.5t-124 13t-101.5 17l25 318q72 -14 172 -26.5t203 -12.5q74 0 138 10 t113.5 37t77 69t27.5 107v125h-19q-51 -90 -136 -129t-201 -39q-475 0 -476 492zM514 578q0 -63 6 -104.5t24.5 -65t50.5 -32.5t83 -9q104 0 145 51t41 174v211q-33 8 -71.5 13t-85.5 5q-61 0 -99.5 -9t-59 -34.5t-27.5 -74t-7 -125.5z" />
<glyph unicode="h" horiz-adv-x="1419" d="M106 0v1655h451v-660q133 61 240.5 96t195.5 35q150 0 238 -84t88 -227v-815h-451v666q0 59 -21.5 84.5t-70.5 25.5q-37 0 -97.5 -11t-121.5 -32v-733h-451z" />
<glyph unicode="i" horiz-adv-x="663" d="M94 1452q0 123 54.5 177t183.5 54q131 0 185 -57t54 -174q0 -119 -53 -176t-186 -57q-129 0 -183.5 55t-54.5 178zM106 0v1106h451v-1106h-451z" />
<glyph unicode="j" horiz-adv-x="659" d="M39 -399q20 86 33.5 162.5t21.5 162.5t12.5 188.5t4.5 235.5v119t-1 183.5t-2.5 220t-3.5 233.5h451v-965q-16 -164 -65.5 -312t-122.5 -280zM90 1452q0 123 55.5 177t184.5 54q131 0 185 -57t54 -174q0 -119 -54 -176t-185 -57q-129 0 -184.5 55t-55.5 178z" />
<glyph unicode="k" horiz-adv-x="1345" d="M106 0v1655h451v-946h76l215 397h491l-338 -516l-59 -15v-8l59 -14l375 -553h-489l-258 432h-72v-432h-451z" />
<glyph unicode="l" horiz-adv-x="663" d="M106 0v1655h451v-1655h-451z" />
<glyph unicode="m" horiz-adv-x="2054" d="M109 0v1106h374l23 -127h16q109 70 211.5 108.5t194.5 38.5q98 0 172 -37.5t114 -109.5h11q104 68 206.5 107.5t194.5 39.5q152 0 240 -84t88 -227v-815h-449v657q0 113 -94 113q-27 0 -74 -11t-82 -26v-733h-448v657q0 113 -96 113q-25 0 -73 -11t-83 -26v-733h-446z " />
<glyph unicode="n" horiz-adv-x="1421" d="M109 0v1106h376l23 -127h18q147 78 261 112.5t208 34.5q150 0 238 -84t88 -227v-815h-451v666q0 59 -22.5 84.5t-69.5 25.5q-43 0 -103.5 -12t-115.5 -31v-733h-450z" />
<glyph unicode="o" horiz-adv-x="1396" d="M57 553q0 281 164 427t479 146t478 -145t163 -428q0 -281 -163 -428.5t-478 -147.5t-479 147.5t-164 428.5zM508 553q0 -74 9 -120t30.5 -71.5t59.5 -36t93 -10.5t92 9.5t58.5 36t31 72.5t9.5 120t-9.5 119t-31 71.5t-58 35.5t-92.5 9q-55 0 -93 -9t-59.5 -35.5 t-30.5 -71.5t-9 -119z" />
<glyph unicode="p" horiz-adv-x="1423" d="M109 -451v1557h393l33 -139h18q53 84 138 121.5t200 37.5q236 0 354.5 -135t118.5 -405q0 -150 -46 -263.5t-131 -190.5t-206 -116t-272 -39q-39 0 -76 2.5t-74 6.5v-437h-450zM559 303q62 -18 160 -18q61 0 99 9t58.5 37.5t27.5 81t7 138.5q0 76 -6 125t-24.5 77.5 t-51 39t-84.5 10.5q-104 0 -145 -52.5t-41 -185.5v-262z" />
<glyph unicode="q" horiz-adv-x="1419" d="M59 520q0 152 45.5 265.5t131.5 190.5t208.5 114.5t278.5 37.5q166 0 320.5 -19t271.5 -36v-1524h-432v590q-66 -86 -152 -122.5t-199 -36.5q-473 0 -473 540zM508 561q0 -78 6 -128t24.5 -78.5t52.5 -40t87 -11.5q104 0 145 53.5t41 184.5v264q-66 16 -159 16 q-63 0 -102.5 -9t-60 -36.5t-27.5 -79t-7 -135.5z" />
<glyph unicode="r" horiz-adv-x="1007" d="M109 0v1106h376l23 -170h10q31 31 70 59.5t83 54t88 46t85 30.5h143v-364h-158q-41 -4 -81.5 -12.5t-76.5 -20.5t-64.5 -27.5t-47.5 -29.5v-672h-450z" />
<glyph unicode="s" horiz-adv-x="1173" d="M74 27v301q135 -29 247.5 -42.5t217.5 -13.5q82 0 115.5 10.5t33.5 36.5q0 29 -35 43.5t-127 22.5q-70 6 -147.5 17.5t-144 47t-110.5 105.5t-44 195q0 180 138 279t386 99q100 0 209 -10t258 -33l-12 -323q-123 27 -228.5 41t-177.5 14q-78 0 -111.5 -12t-33.5 -41 t44 -43t159 -27q94 -10 169.5 -32.5t128 -62.5t81 -99.5t28.5 -145.5q0 -377 -559 -377q-51 0 -112.5 3.5t-126 9.5t-128 15t-118.5 22z" />
<glyph unicode="t" horiz-adv-x="980" d="M39 731v375h203l67 348l348 37v-385h256v-375h-251v-274q0 -86 29.5 -118t105.5 -32q55 0 116 25v-328q-47 -16 -121.5 -25.5t-150.5 -9.5q-211 0 -320.5 97.5t-109.5 283.5v381h-172z" />
<glyph unicode="u" horiz-adv-x="1421" d="M100 291v815h451v-680q0 -59 22.5 -86t71.5 -27q41 0 100.5 12.5t116.5 30.5v750h451v-1106h-377l-23 125h-8q-74 -41 -128 -68.5t-105 -45t-106.5 -24.5t-129.5 -7q-160 0 -248 83.5t-88 227.5z" />
<glyph unicode="v" horiz-adv-x="1366" d="M6 1065v41h490l114 -449l66 -297h22l66 297l121 449h479v-41l-412 -1065h-542z" />
<glyph unicode="w" horiz-adv-x="1824" d="M14 1098v8h443l100 -561l14 -135h25l16 135l117 561h367l116 -561l17 -135h24l15 135l100 561h442v-8l-294 -1098h-488l-90 459l-12 125h-27l-12 -125l-90 -459h-488z" />
<glyph unicode="x" horiz-adv-x="1349" d="M0 0v39l369 534l-355 510v23h473l125 -203l54 -96h20l53 98l123 201h475v-23l-354 -518l367 -526v-39h-476l-137 221l-53 111h-20l-54 -111l-135 -221h-475z" />
<glyph unicode="y" horiz-adv-x="1363" d="M-4 1063v43h485l119 -406l72 -239h22l70 239l125 406h473v-43l-623 -1514l-428 58v33l148 380z" />
<glyph unicode="z" horiz-adv-x="1228" d="M70 0v283l508 481v18h-490v324h1053v-283l-479 -477v-22h499v-324h-1091z" />
<glyph unicode="{" horiz-adv-x="710" d="M51 563v328q72 0 94.5 42t22.5 126v459q0 141 57.5 200.5t180.5 59.5q18 0 55 -1t73.5 -3t67.5 -3.5t41 -3.5v-272h-29q-49 0 -70.5 -20.5t-21.5 -65.5v-442q0 -96 -47 -162t-125 -80q78 -10 125 -73.5t47 -159.5v-451q0 -45 21.5 -65.5t70.5 -20.5h29v-272 q-10 -2 -41 -4.5t-67.5 -3.5t-73.5 -2t-55 -1q-123 0 -180.5 59.5t-57.5 200.5v465q0 84 -22.5 125t-94.5 41z" />
<glyph unicode="|" horiz-adv-x="710" d="M145 -451v2106h420v-2106h-420z" />
<glyph unicode="}" horiz-adv-x="710" d="M68 -45h28q49 0 70.5 20.5t21.5 65.5v451q0 96 47.5 159.5t124.5 73.5q-78 14 -125 79.5t-47 162.5v442q0 45 -21.5 65.5t-70.5 20.5h-28v272q8 2 39.5 3.5t68.5 3.5t74 3t55 1q123 0 180.5 -59.5t57.5 -200.5v-459q0 -84 22.5 -126t93.5 -42v-328q-72 0 -94 -41 t-22 -125v-465q0 -141 -57.5 -200.5t-180.5 -59.5q-18 0 -55 1l-74 2t-68.5 3.5t-39.5 4.5v272z" />
<glyph unicode="~" horiz-adv-x="1472" d="M51 532q76 92 133.5 152.5t106.5 95.5t95 49.5t99 14.5q72 0 131.5 -23.5t113.5 -53.5t105.5 -53.5t106.5 -23.5q68 0 126 40t118 122l237 -141q-37 -53 -81 -116t-96 -117t-116.5 -91t-140.5 -37q-72 0 -131 24.5t-113.5 53.5t-105.5 53.5t-107 24.5q-66 0 -125 -41 t-118 -121z" />
<glyph unicode="&#xa1;" horiz-adv-x="630" d="M90 -389l88 907v21h273v-21l86 -907v-21h-447v21zM96 922q0 98 56.5 151t160.5 53t160.5 -53t56.5 -151t-56 -151.5t-161 -53.5q-104 0 -160.5 53t-56.5 152z" />
<glyph unicode="&#xa2;" horiz-adv-x="1132" d="M57 553q0 522 492 567v232h268v-234q61 -4 116.5 -12t102.5 -19v-348q-96 10 -180 16.5t-162 6.5q-109 0 -150.5 -44t-41.5 -161q0 -119 42 -166t146 -47q109 0 187.5 5t158.5 18v-347q-47 -10 -102 -19t-117 -13v-234h-268v232q-492 43 -492 567z" />
<glyph unicode="&#xa3;" horiz-adv-x="1523" d="M78 0v389h307v207h-307v342h307v109q0 489 655 489q106 0 200.5 -12.5t211.5 -38.5l-12 -357q-92 16 -179 24.5t-159 8.5q-141 0 -198.5 -26.5t-57.5 -92.5v-104h424v-342h-424v-211h575v-385h-1343z" />
<glyph unicode="&#xa4;" horiz-adv-x="1327" d="M84 334l113 110l77 58q-57 47 -87.5 112.5t-30.5 143.5t30.5 142.5t89.5 113.5l-79 57l-113 111l154 155l112 -112l90 -127q49 16 104.5 24t119.5 8q61 0 116.5 -8t104.5 -24l92 127l110 112l156 -155l-113 -111l-81 -59q121 -98 120 -254q0 -78 -30.5 -143.5 t-87.5 -112.5l79 -58l113 -110l-156 -156l-110 113l-88 125q-98 -33 -225 -33t-228 31l-86 -123l-112 -113zM418 758q0 -80 66.5 -122t179.5 -42t178 41t65 123q0 86 -67.5 124t-175.5 38q-113 0 -179.5 -40t-66.5 -122z" />
<glyph unicode="&#xa5;" horiz-adv-x="1705" d="M47 1516h502l231 -465l66 -168h20l64 168l233 465h498l-414 -744h230v-268h-387v-131h387v-269h-387v-104h-461v104h-416v269h416v131h-416v268h248z" />
<glyph unicode="&#xa6;" horiz-adv-x="714" d="M147 420h420v-871h-420v871zM147 784v871h420v-871h-420z" />
<glyph unicode="&#xa7;" horiz-adv-x="1226" d="M96 27v301q135 -29 248 -42.5t217 -13.5q82 0 116 10.5t34 36.5q0 29 -35 43.5t-127 22.5q-70 6 -147.5 17.5t-144.5 47t-111 105.5t-44 195t74 217q-35 35 -54.5 87t-19.5 126q0 180 138.5 279.5t386.5 99.5q100 0 207.5 -10.5t257.5 -32.5l-11 -324q-123 27 -228 41 t-177 14q-78 0 -112 -12t-34 -41t44 -43t159 -27q94 -8 170 -30.5t128 -62.5t81 -100.5t29 -146.5q0 -145 -82 -233q82 -72 82 -197q0 -377 -559 -377q-51 0 -112.5 3.5t-126 9.5t-128 15t-119.5 22zM526 788q0 -49 22.5 -73.5t86.5 -38.5q2 0 12 -2t22.5 -4t23 -4t14.5 -2 q10 25 10 53q0 59 -21.5 83.5t-77.5 35.5q-2 0 -13 3t-23.5 5t-23.5 4t-13 2q-18 -25 -19 -62z" />
<glyph unicode="&#xa8;" horiz-adv-x="1177" d="M80 1452q0 111 49 159t166 48t166 -51.5t49 -155.5q0 -111 -49 -160t-166 -49t-166 49t-49 160zM662 1452q0 111 49 159t166 48t165 -51.5t48 -155.5q0 -111 -48 -160t-165 -49t-166 49t-49 160z" />
<glyph unicode="&#xa9;" horiz-adv-x="1654" d="M70 758q0 174 54 317.5t152.5 245.5t238.5 158.5t312 56.5t312.5 -56.5t239 -158.5t152.5 -245.5t54 -317.5t-54 -317.5t-152.5 -246t-239 -158.5t-312.5 -56t-312 56t-238.5 158.5t-152.5 246t-54 317.5zM285 758q0 -131 36.5 -237.5t105.5 -182.5t170 -117t230 -41 t229.5 41t169 117t105.5 182.5t37 237.5t-37 237.5t-105.5 182t-169 116.5t-229.5 41t-230 -41t-170 -116.5t-105.5 -182t-36.5 -237.5zM469 756q0 420 389 420q49 0 101.5 -6.5t89.5 -16.5v-211q-55 10 -95.5 14.5t-64.5 4.5q-51 0 -83 -11.5t-49.5 -36t-23.5 -63.5t-6 -92 q0 -109 29.5 -158t128.5 -49q23 0 65.5 4t98.5 14v-211q-37 -10 -89.5 -16t-101.5 -6q-389 0 -389 420z" />
<glyph unicode="&#xaa;" horiz-adv-x="1030" d="M53 973q0 117 84 179t238 62h203q-2 29 -7.5 45.5t-17.5 25.5t-34.5 11t-59.5 2q-68 0 -154 -5t-164 -15l-14 215q88 16 182 25.5t185 9.5q233 0 336.5 -60.5t103.5 -193.5v-553h-299l-17 96h-8q-49 -45 -125.5 -74.5t-154.5 -29.5q-129 0 -203 70.5t-74 189.5zM403 997 q0 -49 76 -49q25 0 53.5 5t45.5 16v75l-103 -8q-39 -6 -55.5 -12t-16.5 -27z" />
<glyph unicode="&#xab;" horiz-adv-x="1613" d="M49 549v8l369 487h450l-368 -487v-8l368 -488h-450zM741 549v8l369 487h451l-369 -487v-8l369 -488h-451z" />
<glyph unicode="&#xac;" horiz-adv-x="1828" d="M80 557v361h1630v-736h-440v375h-1190z" />
<glyph unicode="&#xad;" horiz-adv-x="1130" d="M100 412v323h930v-323h-930z" />
<glyph unicode="&#xae;" horiz-adv-x="1411" d="M78 918q0 139 45 253.5t127 196.5t197.5 127t257.5 45q141 0 256.5 -45t197.5 -127t127 -196.5t45 -253.5t-45 -254t-127 -197t-197.5 -127t-256.5 -45t-257 45t-198 127t-127 196.5t-45 254.5zM250 918q0 -104 30.5 -190.5t89 -147t142.5 -93t193 -32.5q106 0 191 32.5 t143.5 93t89 146.5t30.5 191q0 104 -30.5 190t-89 146.5t-143.5 93t-191 32.5q-109 0 -193 -32.5t-142.5 -93t-89 -146.5t-30.5 -190zM483 621v624q53 4 103.5 7t99.5 3q270 0 270 -204q0 -68 -27.5 -115t-82.5 -66l123 -249h-166l-92 202h-64v-202h-164zM647 946h39 q63 0 82.5 23.5t19.5 77.5q0 41 -17 66.5t-69 25.5h-55v-193z" />
<glyph unicode="&#xaf;" horiz-adv-x="1112" d="M100 1305v284h891v-284h-891z" />
<glyph unicode="&#xb0;" horiz-adv-x="1021" d="M47 1147q0 84 34 155.5t95.5 124t147.5 81t188 28.5t187 -28.5t146.5 -81t95.5 -124t34 -155.5t-34 -155.5t-95.5 -123t-146.5 -80t-187 -28.5t-188 28.5t-147.5 80t-95.5 123t-34 155.5zM313 1147q0 -78 48.5 -121t150.5 -43q100 0 147.5 43t47.5 121t-47.5 122 t-147.5 44q-102 0 -150.5 -44t-48.5 -122z" />
<glyph unicode="&#xb1;" horiz-adv-x="1122" d="M94 731v275h328v317h274v-317h328v-275h-328v-297h-274v297h-328zM96 70v274h930v-274h-930z" />
<glyph unicode="&#xb2;" horiz-adv-x="1077" d="M51 614v187q0 154 91 257t294 181q63 23 102.5 39t61 29.5t27.5 26t6 26.5q0 74 -197 74q-61 0 -139 -8.5t-184 -24.5l-31 303q139 23 242.5 33t191.5 10q252 0 373 -86t121 -266q0 -129 -82 -222.5t-240 -152.5q-86 -37 -119.5 -58.5t-33.5 -31.5v-10h473v-306h-957z " />
<glyph unicode="&#xb3;" horiz-adv-x="1019" d="M72 623v319h8q23 -6 59.5 -10t76.5 -7t79 -5t70 -2q72 0 116.5 3t69 10t34 19.5t9.5 32.5q0 23 -11.5 37t-40 22.5t-78.5 11.5t-128 3h-117v241h117q66 0 109.5 3.5t69.5 11.5t37 21.5t11 33.5q0 18 -8 31.5t-30.5 20.5t-60.5 10.5t-97 3.5q-49 0 -129 -7.5t-158 -17.5 h-8v311q31 6 76 10.5t94 8.5t97 6t85 2q524 0 524 -315q0 -168 -149 -238q80 -37 123 -104.5t43 -159.5q0 -162 -129 -247t-375 -85q-57 0 -115.5 2t-111 5t-95.5 7t-67 11z" />
<glyph unicode="&#xb4;" horiz-adv-x="655" d="M57 1266l127 389h461l-266 -410z" />
<glyph unicode="&#xb5;" horiz-adv-x="1505" d="M141 -451v1557h451v-682q0 -113 96 -113q41 0 99.5 12.5t117.5 32.5v750h451v-1106h-379l-23 125h-8q-57 -33 -103 -56.5t-86 -40t-80 -26.5t-85 -16v-437h-451z" />
<glyph unicode="&#xb6;" horiz-adv-x="1447" d="M55 1034q0 137 34 231.5t97.5 152t153.5 83t205 25.5q80 0 178 -5t192 -16v-1505h-182v545q-59 -2 -99 -2h-91q-113 0 -203 25.5t-153.5 83t-97.5 151.5t-34 231zM1024 0v1505h252v-1505h-252z" />
<glyph unicode="&#xb7;" horiz-adv-x="620" d="M72 758q0 123 55 178t184 55q131 0 184.5 -57t53.5 -176t-53.5 -175.5t-184.5 -56.5q-129 0 -184 54.5t-55 177.5z" />
<glyph unicode="&#xb8;" horiz-adv-x="649" d="M74 -174q45 -10 93 -16.5t81 -6.5q35 0 45 10.5t10 24.5q0 35 -44 108.5t-140 168.5h262q61 -61 100 -108.5t62.5 -86.5t33 -72.5t9.5 -70.5q0 -109 -75 -168.5t-204 -59.5q-49 0 -109.5 7.5t-123.5 17.5v252z" />
<glyph unicode="&#xb9;" horiz-adv-x="839" d="M12 1501l2 43l424 189h277v-1119h-377v738l-264 -43h-17z" />
<glyph unicode="&#xba;" horiz-adv-x="1060" d="M53 1118q0 209 123 310.5t354 101.5q236 0 357 -101.5t121 -310.5t-121 -310t-357 -101q-231 0 -354 101t-123 310zM408 1118q0 -55 2 -87t14 -49t36.5 -22.5t69.5 -5.5t70 5.5t37 22.5t15 49t3 87q0 53 -3 86t-15 51.5t-37 25.5t-70 7t-69.5 -7t-36.5 -25.5t-14 -51.5 t-2 -86z" />
<glyph unicode="&#xbb;" horiz-adv-x="1613" d="M55 61l367 488v8l-367 487h451l366 -487v-8l-366 -488h-451zM748 61l366 488v8l-366 487h450l367 -487v-8l-367 -488h-450z" />
<glyph unicode="&#xbc;" horiz-adv-x="2600" d="M49 1296l2 43l424 189h277v-1118h-377v737l-264 -43h-17zM627 0l706 1516h381l-706 -1516h-381zM1440 420l401 692l35 14l330 -22l32 -66l-415 -573h188l94 242h258v-242h177v-281h-177v-184h-376v184h-510z" />
<glyph unicode="&#xbd;" horiz-adv-x="2615" d="M49 1296l2 43l424 189h277v-1118h-377v737l-264 -43h-17zM627 0l706 1516h381l-706 -1516h-381zM1567 0v186q0 154 90 257.5t295 181.5q63 23 102 39t60.5 29.5t27.5 25.5t6 26q0 74 -196 74q-63 0 -141 -8t-183 -25l-31 304q141 23 245 33t190 10q252 0 372.5 -86 t120.5 -267q0 -254 -321 -374q-86 -37 -120 -58.5t-34 -32.5v-10h473v-305h-956z" />
<glyph unicode="&#xbe;" horiz-adv-x="2719" d="M96 418v319h8q23 -6 60 -10t77 -7t78.5 -5t69.5 -2q72 0 117 3t69.5 10t33.5 19.5t9 32.5q0 23 -11 37t-39.5 22.5t-79 11.5t-128.5 3h-116v242h116q66 0 110 3t69.5 11t37 21.5t11.5 33.5q0 18 -8.5 31.5t-31 21t-60 10.5t-97.5 3q-49 0 -129 -7.5t-158 -17.5h-8v312 q31 6 76 10t94 8t97.5 6t85.5 2q524 0 524 -315q0 -168 -150 -238q80 -37 123 -104.5t43 -159.5q0 -162 -129 -247t-375 -85q-57 0 -115.5 2t-110.5 5t-95 7.5t-68 10.5zM770 0l707 1516h381l-707 -1516h-381zM1567 420l401 692l35 14l330 -22l32 -66l-415 -573h188l94 242 h258v-242h176v-281h-176v-184h-376v184h-510z" />
<glyph unicode="&#xbf;" horiz-adv-x="1015" d="M47 -23q0 166 98.5 272.5t278.5 139.5l18 178v29h285v-27l35 -358q-150 -29 -227.5 -75t-77.5 -107q0 -66 50 -90.5t152 -24.5q37 0 77 3t78 7t73 9.5t61 11.5l10 -332q-102 -20 -193 -29.5t-194 -9.5q-254 0 -389 104.5t-135 298.5zM358 918q0 98 56.5 151t160.5 53 t161 -53t57 -151t-56.5 -151.5t-161.5 -53.5q-104 0 -160.5 53t-56.5 152z" />
<glyph unicode="&#xc0;" horiz-adv-x="1597" d="M-10 0v23l467 1493h684l467 -1493v-23h-445l-92 309h-547l-90 -309h-444zM334 2054h463l127 -389l-322 -20zM627 659h344l-64 226l-90 317h-37l-92 -321z" />
<glyph unicode="&#xc1;" horiz-adv-x="1597" d="M-10 0v23l467 1493h684l467 -1493v-23h-445l-92 309h-547l-90 -309h-444zM625 1665l129 389h458l-264 -409zM627 659h344l-64 226l-90 317h-37l-92 -321z" />
<glyph unicode="&#xc2;" horiz-adv-x="1597" d="M-10 0v23l467 1493h684l467 -1493v-23h-445l-92 309h-547l-90 -309h-444zM352 1626v291l445 164l452 -164v-291l-448 162zM627 659h344l-64 226l-90 317h-37l-92 -321z" />
<glyph unicode="&#xc3;" horiz-adv-x="1597" d="M-10 0v23l467 1493h684l467 -1493v-23h-445l-92 309h-547l-90 -309h-444zM287 1749q76 150 173 224.5t189 74.5q55 0 108.5 -12.5t108 -25.5t108.5 -25.5t109 -12.5q47 0 92.5 14.5t108.5 61.5l47 -70q-78 -152 -175 -225.5t-185 -73.5q-55 0 -109.5 12.5t-109 26 t-108.5 25.5t-109 12q-49 0 -95.5 -14.5t-105.5 -61.5zM627 659h344l-64 226l-90 317h-37l-92 -321z" />
<glyph unicode="&#xc4;" horiz-adv-x="1597" d="M-10 0v23l467 1493h684l467 -1493v-23h-445l-92 309h-547l-90 -309h-444zM244 1862q0 123 55 177t184 54q131 0 184.5 -57.5t53.5 -173.5q0 -119 -53.5 -176.5t-184.5 -57.5q-129 0 -184 55.5t-55 178.5zM627 659h344l-64 226l-90 317h-37l-92 -321zM872 1862 q0 123 54.5 177t185.5 54t184.5 -57.5t53.5 -173.5q0 -119 -53.5 -176.5t-184.5 -57.5t-185.5 55.5t-54.5 178.5z" />
<glyph unicode="&#xc5;" horiz-adv-x="1597" d="M-10 0v23l467 1493h684l467 -1493v-23h-445l-92 309h-547l-90 -309h-444zM508 1831q0 53 22.5 98t61.5 77t92 50.5t115 18.5q127 0 209 -68t82 -176q0 -109 -82 -174.5t-209 -65.5q-125 0 -208 65.5t-83 174.5zM627 659h344l-64 226l-90 317h-37l-92 -321zM676 1831 q0 -53 25.5 -76.5t97.5 -23.5t97.5 23.5t25.5 76.5t-26 78.5t-97 25.5q-72 0 -97.5 -25.5t-25.5 -78.5z" />
<glyph unicode="&#xc6;" horiz-adv-x="2152" d="M-23 0v23l607 1493h1462v-353h-629l17 -229h591v-352h-565l19 -228h602v-354h-1061l-12 299h-459l-119 -299h-453zM696 668h295l-20 532h-60z" />
<glyph unicode="&#xc7;" horiz-adv-x="1263" d="M63 756q0 403 191.5 595.5t579.5 192.5q72 0 156.5 -7t207.5 -24v-362q-68 6 -114 10t-79.5 6t-59 3t-52.5 1q-111 0 -179.5 -15t-107.5 -60t-53 -127t-14 -213q0 -129 14 -209t53 -124t107.5 -60.5t175.5 -16.5q35 0 78 2t86 6t80.5 8.5t64.5 10.5v-365 q-133 -29 -276 -35q45 -59 61 -103t16 -93q0 -109 -74.5 -168.5t-203.5 -59.5q-49 0 -109.5 7.5t-124.5 17.5v252q45 -10 93.5 -16.5t81.5 -6.5q35 0 45 10.5t10 24.5q0 23 -18.5 62t-55.5 90q-293 47 -436.5 235.5t-143.5 530.5z" />
<glyph unicode="&#xc8;" horiz-adv-x="1400" d="M125 0v1516h1188v-353h-727v-229h649v-352h-649v-228h747v-354h-1208zM338 2054h463l127 -389l-322 -20z" />
<glyph unicode="&#xc9;" horiz-adv-x="1400" d="M125 0v1516h1188v-353h-727v-229h649v-352h-649v-228h747v-354h-1208zM535 1665l129 389h458l-264 -409z" />
<glyph unicode="&#xca;" horiz-adv-x="1400" d="M125 0v1516h1188v-353h-727v-229h649v-352h-649v-228h747v-354h-1208zM303 1626v291l445 164l452 -164v-291l-448 162z" />
<glyph unicode="&#xcb;" horiz-adv-x="1400" d="M125 0v1516h1188v-353h-727v-229h649v-352h-649v-228h747v-354h-1208zM188 1862q0 123 55.5 177t184.5 54q131 0 184.5 -57.5t53.5 -173.5q0 -119 -53.5 -176.5t-184.5 -57.5q-129 0 -184.5 55.5t-55.5 178.5zM817 1862q0 123 54.5 177t185.5 54t184 -57.5t53 -173.5 q0 -119 -53 -176.5t-184 -57.5t-185.5 55.5t-54.5 178.5z" />
<glyph unicode="&#xcc;" horiz-adv-x="712" d="M-41 2054h463l127 -389l-322 -20zM125 0v1516h461v-1516h-461z" />
<glyph unicode="&#xcd;" horiz-adv-x="712" d="M125 0v1516h461v-1516h-461zM184 1665l129 389h459l-264 -409z" />
<glyph unicode="&#xce;" horiz-adv-x="712" d="M-88 1626v291l444 164l453 -164v-291l-449 162zM125 0v1516h461v-1516h-461z" />
<glyph unicode="&#xcf;" horiz-adv-x="712" d="M-190 1862q0 123 55 177t184 54q131 0 184.5 -57.5t53.5 -173.5q0 -119 -53.5 -176.5t-184.5 -57.5q-129 0 -184 55.5t-55 178.5zM125 0v1516h461v-1516h-461zM438 1862q0 123 54.5 177t185.5 54t184 -57.5t53 -173.5q0 -119 -53 -176.5t-184 -57.5t-185.5 55.5 t-54.5 178.5z" />
<glyph unicode="&#xd0;" horiz-adv-x="1699" d="M6 596v342h176v575q197 10 332 16.5t238 6.5q233 0 400 -45t274.5 -139.5t158.5 -242.5t51 -353q0 -211 -53 -358.5t-170 -241t-302 -136.5t-449 -43q-125 0 -254 7.5t-226 19.5v592h-176zM641 354q47 -8 101.5 -11t105.5 -3q92 0 153.5 18.5t98.5 66.5t51 128t14 203 q0 121 -16 200.5t-56 128t-105.5 69t-164.5 20.5q-35 0 -75.5 -2.5t-106.5 -6.5v-227h186v-342h-186v-242z" />
<glyph unicode="&#xd1;" horiz-adv-x="1708" d="M125 0v1516h362l551 -668l123 -170h21v838h401v-1516h-362l-531 647l-143 193h-21v-840h-401zM340 1749q76 150 173 224.5t189 74.5q55 0 108.5 -12.5t108 -25.5t108.5 -25.5t110 -12.5q47 0 92 14.5t108 61.5l47 -70q-78 -152 -175 -225.5t-185 -73.5q-55 0 -109.5 12.5 t-108.5 26t-108.5 25.5t-109.5 12q-49 0 -95.5 -14.5t-105.5 -61.5z" />
<glyph unicode="&#xd2;" horiz-adv-x="1683" d="M63 756q0 387 197 583.5t582 196.5q383 0 580.5 -197.5t197.5 -582.5q0 -383 -197.5 -579.5t-580.5 -196.5q-385 0 -582 196.5t-197 579.5zM383 2054h463l127 -389l-322 -20zM535 756q0 -125 14 -205t49 -126t94.5 -63.5t149.5 -17.5q92 0 151.5 17.5t94 62.5t48 125 t13.5 207q0 123 -15.5 203.5t-50 128t-94 65.5t-147.5 18t-147.5 -18t-94.5 -65.5t-50 -127t-15 -204.5z" />
<glyph unicode="&#xd3;" horiz-adv-x="1683" d="M63 756q0 387 197 583.5t582 196.5q383 0 580.5 -197.5t197.5 -582.5q0 -383 -197.5 -579.5t-580.5 -196.5q-385 0 -582 196.5t-197 579.5zM535 756q0 -125 14 -205t49 -126t94.5 -63.5t149.5 -17.5q92 0 151.5 17.5t94 62.5t48 125t13.5 207q0 123 -15.5 203.5t-50 128 t-94 65.5t-147.5 18t-147.5 -18t-94.5 -65.5t-50 -127t-15 -204.5zM672 1665l129 389h459l-265 -409z" />
<glyph unicode="&#xd4;" horiz-adv-x="1683" d="M63 756q0 387 197 583.5t582 196.5q383 0 580.5 -197.5t197.5 -582.5q0 -383 -197.5 -579.5t-580.5 -196.5q-385 0 -582 196.5t-197 579.5zM387 1626v291l444 164l453 -164v-291l-448 162zM535 756q0 -125 14 -205t49 -126t94.5 -63.5t149.5 -17.5q92 0 151.5 17.5 t94 62.5t48 125t13.5 207q0 123 -15.5 203.5t-50 128t-94 65.5t-147.5 18t-147.5 -18t-94.5 -65.5t-50 -127t-15 -204.5z" />
<glyph unicode="&#xd5;" horiz-adv-x="1683" d="M63 756q0 387 197 583.5t582 196.5q383 0 580.5 -197.5t197.5 -582.5q0 -383 -197.5 -579.5t-580.5 -196.5q-385 0 -582 196.5t-197 579.5zM330 1749q76 150 173 224.5t189 74.5q55 0 108.5 -12.5t108 -25.5t108.5 -25.5t109 -12.5q47 0 92.5 14.5t108.5 61.5l47 -70 q-78 -152 -175 -225.5t-185 -73.5q-55 0 -109.5 12.5t-109 26t-108.5 25.5t-109 12q-49 0 -95.5 -14.5t-105.5 -61.5zM535 756q0 -125 14 -205t49 -126t94.5 -63.5t149.5 -17.5q92 0 151.5 17.5t94 62.5t48 125t13.5 207q0 123 -15.5 203.5t-50 128t-94 65.5t-147.5 18 t-147.5 -18t-94.5 -65.5t-50 -127t-15 -204.5z" />
<glyph unicode="&#xd6;" horiz-adv-x="1683" d="M63 756q0 387 197 583.5t582 196.5q383 0 580.5 -197.5t197.5 -582.5q0 -383 -197.5 -579.5t-580.5 -196.5q-385 0 -582 196.5t-197 579.5zM272 1862q0 123 55.5 177t184.5 54q131 0 184.5 -57.5t53.5 -173.5q0 -119 -53.5 -176.5t-184.5 -57.5q-129 0 -184.5 55.5 t-55.5 178.5zM535 756q0 -125 14 -205t49 -126t94.5 -63.5t149.5 -17.5q92 0 151.5 17.5t94 62.5t48 125t13.5 207q0 123 -15.5 203.5t-50 128t-94 65.5t-147.5 18t-147.5 -18t-94.5 -65.5t-50 -127t-15 -204.5zM901 1862q0 123 54.5 177t185.5 54t184 -57.5t53 -173.5 q0 -119 -53 -176.5t-184 -57.5t-185.5 55.5t-54.5 178.5z" />
<glyph unicode="&#xd7;" horiz-adv-x="1064" d="M61 481l277 277l-277 276l195 195l276 -277l275 277l197 -195l-277 -276l277 -277l-195 -194l-277 276l-276 -276z" />
<glyph unicode="&#xd8;" horiz-adv-x="1687" d="M8 0l207 231q-150 193 -149 525q0 387 196.5 583.5t581.5 196.5q264 0 446 -100l72 80h319l-211 -234q152 -195 152 -526q0 -383 -197.5 -579.5t-580.5 -196.5q-270 0 -449 98l-69 -78h-318zM537 756q0 -45 1 -84t5 -72l481 539q-66 33 -180 32q-88 0 -147.5 -18 t-94.5 -65.5t-50 -127t-15 -204.5zM659 375q35 -16 80.5 -23.5t104.5 -7.5q92 0 151.5 17.5t94 62.5t48 125t13.5 207q0 45 -2 84t-6 73z" />
<glyph unicode="&#xd9;" horiz-adv-x="1695" d="M111 631v889h460v-904q0 -129 64.5 -199.5t212.5 -70.5q150 0 213 70.5t63 199.5v904h461v-889q0 -164 -37 -286t-123 -204t-227 -121.5t-350 -39.5t-350.5 40.5t-227.5 121.5t-122.5 203t-36.5 286zM406 2054h462l127 -389l-321 -20z" />
<glyph unicode="&#xda;" horiz-adv-x="1695" d="M111 631v889h460v-904q0 -129 64.5 -199.5t212.5 -70.5q150 0 213 70.5t63 199.5v904h461v-889q0 -164 -37 -286t-123 -204t-227 -121.5t-350 -39.5t-350.5 40.5t-227.5 121.5t-122.5 203t-36.5 286zM637 1665l129 389h459l-264 -409z" />
<glyph unicode="&#xdb;" horiz-adv-x="1695" d="M111 631v889h460v-904q0 -129 64.5 -199.5t212.5 -70.5q150 0 213 70.5t63 199.5v904h461v-889q0 -164 -37 -286t-123 -204t-227 -121.5t-350 -39.5t-350.5 40.5t-227.5 121.5t-122.5 203t-36.5 286zM389 1626v291l445 164l452 -164v-291l-448 162z" />
<glyph unicode="&#xdc;" horiz-adv-x="1695" d="M111 631v889h460v-904q0 -129 64.5 -199.5t212.5 -70.5q150 0 213 70.5t63 199.5v904h461v-889q0 -164 -37 -286t-123 -204t-227 -121.5t-350 -39.5t-350.5 40.5t-227.5 121.5t-122.5 203t-36.5 286zM287 1862q0 123 55 177t184 54q131 0 184.5 -57.5t53.5 -173.5 q0 -119 -53.5 -176.5t-184.5 -57.5q-129 0 -184 55.5t-55 178.5zM915 1862q0 123 54.5 177t185.5 54t184.5 -57.5t53.5 -173.5q0 -119 -53.5 -176.5t-184.5 -57.5t-185.5 55.5t-54.5 178.5z" />
<glyph unicode="&#xdd;" horiz-adv-x="1564" d="M-27 1516h502l232 -465l65 -168h21l63 168l234 465h497l-571 -1031v-485h-461v471zM618 1665l130 389h458l-264 -409z" />
<glyph unicode="&#xde;" horiz-adv-x="1507" d="M125 0v1516h461v-230h65q215 0 371 -30.5t255 -96t146 -166t47 -241.5q0 -139 -47 -240.5t-146 -166t-253 -95.5t-367 -31h-71v-219h-461zM586 594h104q102 0 163.5 4t95.5 20.5t45.5 47t11.5 86.5q0 55 -10.5 86.5t-44 48t-96 20.5t-167.5 4h-102v-317z" />
<glyph unicode="&#xdf;" horiz-adv-x="1759" d="M109 0v1145q0 522 716 522q727 0 727 -522v-328h-274q-82 0 -119 -12t-37 -41q0 -14 9.5 -24.5t32 -18.5t62.5 -14.5t99 -12.5q94 -10 169 -31.5t128 -61.5t82 -100.5t29 -146.5q0 -377 -559 -377q-53 0 -115 3.5t-126.5 9.5t-128 15t-118.5 22v301q139 -29 252 -42.5 t215 -13.5q84 0 117 10.5t33 36.5q0 29 -36 43.5t-128 22.5q-68 6 -147 17.5t-144.5 47t-109.5 105.5t-44 195q0 154 105.5 249t298.5 121v25q0 94 -65.5 138t-205.5 44q-139 0 -203.5 -44t-64.5 -138v-1145h-450z" />
<glyph unicode="&#xe0;" d="M51 324q0 172 103.5 256t318.5 100l250 16q-2 33 -11.5 54.5t-31 35t-59 19.5t-95.5 6q-41 0 -88 -3t-97 -8t-99 -11.5t-92 -14.5l-29 305q123 23 243.5 33t225.5 10q299 0 442.5 -93t143.5 -292v-737h-369l-39 133h-20q-72 -76 -165.5 -109.5t-191.5 -33.5 q-166 0 -253 89t-87 245zM231 1655h463l127 -389l-321 -21zM506 377q0 -88 86 -88q39 0 79 13t54 30v145l-111 -10q-61 -6 -84.5 -24.5t-23.5 -65.5z" />
<glyph unicode="&#xe1;" d="M51 324q0 172 103.5 256t318.5 100l250 16q-2 33 -11.5 54.5t-31 35t-59 19.5t-95.5 6q-41 0 -88 -3t-97 -8t-99 -11.5t-92 -14.5l-29 305q123 23 243.5 33t225.5 10q299 0 442.5 -93t143.5 -292v-737h-369l-39 133h-20q-72 -76 -165.5 -109.5t-191.5 -33.5 q-166 0 -253 89t-87 245zM461 1266l127 389h461l-267 -410zM506 377q0 -88 86 -88q39 0 79 13t54 30v145l-111 -10q-61 -6 -84.5 -24.5t-23.5 -65.5z" />
<glyph unicode="&#xe2;" d="M51 324q0 172 103.5 256t318.5 100l250 16q-2 33 -11.5 54.5t-31 35t-59 19.5t-95.5 6q-41 0 -88 -3t-97 -8t-99 -11.5t-92 -14.5l-29 305q123 23 243.5 33t225.5 10q299 0 442.5 -93t143.5 -292v-737h-369l-39 133h-20q-72 -76 -165.5 -109.5t-191.5 -33.5 q-166 0 -253 89t-87 245zM203 1227v291l444 163l453 -163v-291l-449 162zM506 377q0 -88 86 -88q39 0 79 13t54 30v145l-111 -10q-61 -6 -84.5 -24.5t-23.5 -65.5z" />
<glyph unicode="&#xe3;" d="M51 324q0 172 103.5 256t318.5 100l250 16q-2 33 -11.5 54.5t-31 35t-59 19.5t-95.5 6q-41 0 -88 -3t-97 -8t-99 -11.5t-92 -14.5l-29 305q123 23 243.5 33t225.5 10q299 0 442.5 -93t143.5 -292v-737h-369l-39 133h-20q-72 -76 -165.5 -109.5t-191.5 -33.5 q-166 0 -253 89t-87 245zM135 1352q74 147 172.5 218.5t188.5 71.5q55 0 109 -13t108.5 -28.5t109 -28.5t109.5 -13q45 0 89 14t105 61l54 -78q-78 -147 -175.5 -218.5t-185.5 -71.5q-55 0 -109.5 13t-108.5 28.5t-108.5 29t-109.5 13.5q-47 0 -92 -14.5t-103 -61.5z M506 377q0 -88 86 -88q39 0 79 13t54 30v145l-111 -10q-61 -6 -84.5 -24.5t-23.5 -65.5z" />
<glyph unicode="&#xe4;" d="M51 324q0 172 103.5 256t318.5 100l250 16q-2 33 -11.5 54.5t-31 35t-59 19.5t-95.5 6q-41 0 -88 -3t-97 -8t-99 -11.5t-92 -14.5l-29 305q123 23 243.5 33t225.5 10q299 0 442.5 -93t143.5 -292v-737h-369l-39 133h-20q-72 -76 -165.5 -109.5t-191.5 -33.5 q-166 0 -253 89t-87 245zM143 1452q0 111 49.5 159t165.5 48q117 0 166 -51.5t49 -155.5q0 -111 -49 -160t-166 -49t-166 49t-49 160zM506 377q0 -88 86 -88q39 0 79 13t54 30v145l-111 -10q-61 -6 -84.5 -24.5t-23.5 -65.5zM725 1452q0 111 49 159t166 48t165 -51.5 t48 -155.5q0 -111 -48 -160t-165 -49t-166 49t-49 160z" />
<glyph unicode="&#xe5;" d="M51 324q0 172 103.5 256t318.5 100l250 16q-2 33 -11.5 54.5t-31 35t-59 19.5t-95.5 6q-41 0 -88 -3t-97 -8t-99 -11.5t-92 -14.5l-29 305q123 23 243.5 33t225.5 10q299 0 442.5 -93t143.5 -292v-737h-369l-39 133h-20q-72 -76 -165.5 -109.5t-191.5 -33.5 q-166 0 -253 89t-87 245zM344 1432q0 111 83 177t210 66q129 0 211 -66.5t82 -176.5q0 -109 -82 -174.5t-211 -65.5q-63 0 -116.5 17.5t-92.5 49t-61.5 75.5t-22.5 98zM506 377q0 -88 86 -88q39 0 79 13t54 30v145l-111 -10q-61 -6 -84.5 -24.5t-23.5 -65.5zM516 1432 q0 -49 27.5 -74t93.5 -25q68 0 94.5 24.5t26.5 74.5q0 53 -26.5 77.5t-94.5 24.5t-94.5 -24.5t-26.5 -77.5z" />
<glyph unicode="&#xe6;" horiz-adv-x="1949" d="M51 330q0 326 424 350l252 16v15q0 33 -11 52t-38 29.5t-73 14.5t-116 4q-66 0 -161 -10t-176 -27l-29 305q125 23 244.5 33t242.5 10q244 0 369 -96h20q70 43 158 65.5t201 22.5q530 0 530 -493q0 -59 -5 -104.5t-17 -84.5h-682q4 -41 16 -66.5t36 -39t60.5 -17.5 t89.5 -4q51 0 112 3t121 9.5t116.5 13.5t97.5 17l10 -313q-109 -31 -237.5 -47.5t-255.5 -16.5q-160 0 -270.5 42t-178.5 132h-20q-238 -156 -498 -155q-158 0 -245 90t-87 250zM508 379q0 -47 20.5 -68.5t67.5 -21.5q35 0 75 13t56 30v145l-111 -10q-63 -6 -85.5 -26.5 t-22.5 -61.5zM1182 647h313q-4 88 -39 124t-121 36q-78 0 -112.5 -34t-40.5 -126z" />
<glyph unicode="&#xe7;" horiz-adv-x="1116" d="M59 553q0 291 146.5 431t445.5 140q109 0 210.5 -10t176.5 -27v-348q-96 10 -180 16.5t-162 6.5q-109 0 -150.5 -44t-41.5 -161q0 -119 42 -166t146 -47q109 0 187.5 5t158.5 18v-347q-104 -25 -245 -34q49 -63 68.5 -109.5t19.5 -99.5q0 -109 -75 -168.5t-204 -59.5 q-49 0 -109.5 7.5t-123.5 17.5v252q45 -10 93 -16.5t81 -6.5q35 0 45 10.5t10 24.5q0 23 -18.5 62t-55.5 90q-465 55 -465 563z" />
<glyph unicode="&#xe8;" d="M59 549q0 575 621 575q530 0 530 -493q0 -53 -5 -98.5t-17 -90.5h-682q6 -43 18.5 -67.5t35 -37.5t59 -17.5t92.5 -4.5q49 0 108.5 3.5t119.5 9.5t116.5 14t99.5 18l10 -315q-106 -29 -236 -46t-257 -17q-612 0 -613 567zM215 1655h463l127 -389l-322 -21zM504 659h313 q-4 88 -39 124t-119 36q-78 0 -112.5 -33.5t-42.5 -126.5z" />
<glyph unicode="&#xe9;" d="M59 549q0 575 621 575q530 0 530 -493q0 -53 -5 -98.5t-17 -90.5h-682q6 -43 18.5 -67.5t35 -37.5t59 -17.5t92.5 -4.5q49 0 108.5 3.5t119.5 9.5t116.5 14t99.5 18l10 -315q-106 -29 -236 -46t-257 -17q-612 0 -613 567zM504 659h313q-4 88 -39 124t-119 36 q-78 0 -112.5 -33.5t-42.5 -126.5zM522 1266l127 389h461l-266 -410z" />
<glyph unicode="&#xea;" d="M59 549q0 575 621 575q530 0 530 -493q0 -53 -5 -98.5t-17 -90.5h-682q6 -43 18.5 -67.5t35 -37.5t59 -17.5t92.5 -4.5q49 0 108.5 3.5t119.5 9.5t116.5 14t99.5 18l10 -315q-106 -29 -236 -46t-257 -17q-612 0 -613 567zM219 1227v291l445 163l452 -163v-291l-448 162z M504 659h313q-4 88 -39 124t-119 36q-78 0 -112.5 -33.5t-42.5 -126.5z" />
<glyph unicode="&#xeb;" d="M59 549q0 575 621 575q530 0 530 -493q0 -53 -5 -98.5t-17 -90.5h-682q6 -43 18.5 -67.5t35 -37.5t59 -17.5t92.5 -4.5q49 0 108.5 3.5t119.5 9.5t116.5 14t99.5 18l10 -315q-106 -29 -236 -46t-257 -17q-612 0 -613 567zM139 1452q0 111 49.5 159t165.5 48 q117 0 166 -51.5t49 -155.5q0 -111 -49 -160t-166 -49t-166 49t-49 160zM504 659h313q-4 88 -39 124t-119 36q-78 0 -112.5 -33.5t-42.5 -126.5zM721 1452q0 111 49 159t166 48t165 -51.5t48 -155.5q0 -111 -48 -160t-165 -49t-166 49t-49 160z" />
<glyph unicode="&#xec;" horiz-adv-x="665" d="M-113 1655h463l127 -389l-321 -21zM109 0v1106h450v-1106h-450z" />
<glyph unicode="&#xed;" horiz-adv-x="665" d="M106 0v1106h451v-1106h-451zM170 1266l127 389h461l-266 -410z" />
<glyph unicode="&#xee;" horiz-adv-x="667" d="M-74 1227v291l414 163l422 -163v-291l-418 162zM109 0v1106h450v-1106h-450z" />
<glyph unicode="&#xef;" horiz-adv-x="667" d="M-129 1452q0 111 49 159t166 48t166 -51.5t49 -155.5q0 -111 -49 -160t-166 -49t-166 49t-49 160zM109 0v1106h450v-1106h-450zM379 1452q0 111 49 159t166 48t166 -51.5t49 -155.5q0 -111 -49 -160t-166 -49t-166 49t-49 160z" />
<glyph unicode="&#xf0;" horiz-adv-x="1413" d="M57 549q0 137 41 244.5t119 182.5t189.5 113.5t250.5 38.5q72 0 127.5 -14t102.5 -49q-35 86 -86 174l-406 -35v262l219 19q-39 41 -83 84t-91 86h453l49 -49t78 -86l342 28v-262l-178 -16q66 -123 111.5 -282t45.5 -357q0 -330 -163.5 -492t-483.5 -162 q-305 0 -471 146.5t-166 425.5zM508 551q0 -72 8 -117t29.5 -71.5t59.5 -37t95 -10.5q55 0 92 10.5t58.5 36t31 70.5t9.5 113q0 72 -10.5 119t-34 74.5t-61 38.5t-93.5 11q-55 0 -90 -10t-56.5 -37.5t-29.5 -73.5t-8 -116z" />
<glyph unicode="&#xf1;" horiz-adv-x="1421" d="M109 0v1106h376l23 -127h18q147 78 261 112.5t208 34.5q150 0 238 -84t88 -227v-815h-451v666q0 59 -22.5 84.5t-69.5 25.5q-43 0 -103.5 -12t-115.5 -31v-733h-450zM213 1352q74 147 172 218.5t188 71.5q55 0 109.5 -13t109 -28.5t108.5 -28.5t110 -13q45 0 89 14 t105 61l53 -78q-78 -147 -175 -218.5t-185 -71.5q-55 0 -109.5 13t-108.5 28.5t-108.5 29t-109.5 13.5q-47 0 -92 -14.5t-103 -61.5z" />
<glyph unicode="&#xf2;" horiz-adv-x="1396" d="M57 553q0 281 164 427t479 146t478 -145t163 -428q0 -281 -163 -428.5t-478 -147.5t-479 147.5t-164 428.5zM242 1655h463l126 -389l-321 -21zM508 553q0 -74 9 -120t30.5 -71.5t59.5 -36t93 -10.5t92 9.5t58.5 36t31 72.5t9.5 120t-9.5 119t-31 71.5t-58 35.5t-92.5 9 q-55 0 -93 -9t-59.5 -35.5t-30.5 -71.5t-9 -119z" />
<glyph unicode="&#xf3;" horiz-adv-x="1396" d="M57 553q0 281 164 427t479 146t478 -145t163 -428q0 -281 -163 -428.5t-478 -147.5t-479 147.5t-164 428.5zM508 553q0 -74 9 -120t30.5 -71.5t59.5 -36t93 -10.5t92 9.5t58.5 36t31 72.5t9.5 120t-9.5 119t-31 71.5t-58 35.5t-92.5 9q-55 0 -93 -9t-59.5 -35.5 t-30.5 -71.5t-9 -119zM514 1266l127 389h461l-266 -410z" />
<glyph unicode="&#xf4;" horiz-adv-x="1396" d="M57 553q0 281 164 427t479 146t478 -145t163 -428q0 -281 -163 -428.5t-478 -147.5t-479 147.5t-164 428.5zM250 1227v291l444 163l453 -163v-291l-449 162zM508 553q0 -74 9 -120t30.5 -71.5t59.5 -36t93 -10.5t92 9.5t58.5 36t31 72.5t9.5 120t-9.5 119t-31 71.5 t-58 35.5t-92.5 9q-55 0 -93 -9t-59.5 -35.5t-30.5 -71.5t-9 -119z" />
<glyph unicode="&#xf5;" horiz-adv-x="1396" d="M57 553q0 281 164 427t479 146t478 -145t163 -428q0 -281 -163 -428.5t-478 -147.5t-479 147.5t-164 428.5zM190 1352q74 147 172.5 218.5t188.5 71.5q55 0 109.5 -13t108.5 -28.5t108.5 -28.5t109.5 -13q45 0 89 14t106 61l53 -78q-78 -147 -175 -218.5t-186 -71.5 q-55 0 -109 13t-108.5 28.5t-108.5 29t-110 13.5q-47 0 -92 -14.5t-102 -61.5zM508 553q0 -74 9 -120t30.5 -71.5t59.5 -36t93 -10.5t92 9.5t58.5 36t31 72.5t9.5 120t-9.5 119t-31 71.5t-58 35.5t-92.5 9q-55 0 -93 -9t-59.5 -35.5t-30.5 -71.5t-9 -119z" />
<glyph unicode="&#xf6;" horiz-adv-x="1396" d="M57 553q0 281 164 427t479 146t478 -145t163 -428q0 -281 -163 -428.5t-478 -147.5t-479 147.5t-164 428.5zM193 1452q0 111 49 159t166 48t166 -51.5t49 -155.5q0 -111 -49 -160t-166 -49t-166 49t-49 160zM508 553q0 -74 9 -120t30.5 -71.5t59.5 -36t93 -10.5t92 9.5 t58.5 36t31 72.5t9.5 120t-9.5 119t-31 71.5t-58 35.5t-92.5 9q-55 0 -93 -9t-59.5 -35.5t-30.5 -71.5t-9 -119zM774 1452q0 111 49 159t166 48t165 -51.5t48 -155.5q0 -111 -48 -160t-165 -49t-166 49t-49 160z" />
<glyph unicode="&#xf7;" horiz-adv-x="1091" d="M59 621v274h971v-274h-971zM377 362q0 86 48 127t124 41q74 0 122 -40.5t48 -127.5q0 -90 -48 -133t-122 -43q-76 0 -124 43t-48 133zM377 1153q0 90 48 133t124 43q74 0 122 -43t48 -133q0 -86 -48 -127t-122 -41q-76 0 -124 41t-48 127z" />
<glyph unicode="&#xf8;" horiz-adv-x="1411" d="M-16 0l190 184q-109 139 -108 369q0 131 37.5 237.5t117.5 181.5t201 114.5t287 39.5q111 0 203 -19.5t163 -53.5l55 53h300l-191 -184q111 -141 111 -369q0 -133 -39 -239.5t-118 -181.5t-200 -115t-284 -40q-115 0 -207 19.5t-164 54.5l-53 -51h-301zM516 512l279 270 q-37 6 -86 6q-72 0 -111 -12t-57.5 -39.5t-21.5 -73t-3 -110.5v-41zM618 322q34 -7 91 -7q70 0 108.5 12.5t57 40t21.5 73.5t3 112v41z" />
<glyph unicode="&#xf9;" horiz-adv-x="1421" d="M100 291v815h451v-680q0 -59 22.5 -86t71.5 -27q41 0 100.5 12.5t116.5 30.5v750h451v-1106h-377l-23 125h-8q-74 -41 -128 -68.5t-105 -45t-106.5 -24.5t-129.5 -7q-160 0 -248 83.5t-88 227.5zM262 1655h463l127 -389l-322 -21z" />
<glyph unicode="&#xfa;" horiz-adv-x="1421" d="M100 291v815h451v-680q0 -59 22.5 -86t71.5 -27q41 0 100.5 12.5t116.5 30.5v750h451v-1106h-377l-23 125h-8q-74 -41 -128 -68.5t-105 -45t-106.5 -24.5t-129.5 -7q-160 0 -248 83.5t-88 227.5zM524 1266l127 389h461l-266 -410z" />
<glyph unicode="&#xfb;" horiz-adv-x="1421" d="M100 291v815h451v-680q0 -59 22.5 -86t71.5 -27q41 0 100.5 12.5t116.5 30.5v750h451v-1106h-377l-23 125h-8q-74 -41 -128 -68.5t-105 -45t-106.5 -24.5t-129.5 -7q-160 0 -248 83.5t-88 227.5zM272 1227v291l445 163l452 -163v-291l-448 162z" />
<glyph unicode="&#xfc;" horiz-adv-x="1421" d="M100 291v815h451v-680q0 -59 22.5 -86t71.5 -27q41 0 100.5 12.5t116.5 30.5v750h451v-1106h-377l-23 125h-8q-74 -41 -128 -68.5t-105 -45t-106.5 -24.5t-129.5 -7q-160 0 -248 83.5t-88 227.5zM209 1452q0 111 49 159t166 48t166 -51.5t49 -155.5q0 -111 -49 -160 t-166 -49t-166 49t-49 160zM791 1452q0 111 49 159t166 48t165 -51.5t48 -155.5q0 -111 -48 -160t-165 -49t-166 49t-49 160z" />
<glyph unicode="&#xfd;" horiz-adv-x="1363" d="M-4 1063v43h485l119 -406l72 -239h22l70 239l125 406h473v-43l-623 -1514l-428 58v33l148 380zM524 1266l127 389h461l-266 -410z" />
<glyph unicode="&#xfe;" horiz-adv-x="1415" d="M106 -451v2106h451v-645q53 47 140 80.5t218 33.5q233 0 335 -133t102 -413q0 -141 -37 -252t-118 -188t-212 -116.5t-321 -39.5q4 0 -32 2t-75 6v-441h-451zM557 268h109q84 0 131 5.5t70.5 30t28.5 77.5t5 151q0 104 -7 162t-24.5 84.5t-47 31.5t-77.5 5 q-72 0 -109.5 -21.5t-55 -73.5t-20.5 -139t-3 -221v-92z" />
<glyph unicode="&#xff;" horiz-adv-x="1363" d="M-4 1063v43h485l119 -406l72 -239h22l70 239l125 406h473v-43l-623 -1514l-428 58v33l148 380zM178 1452q0 111 49 159t166 48t166 -51.5t49 -155.5q0 -111 -49 -160t-166 -49t-166 49t-49 160zM760 1452q0 111 49 159t166 48t165 -51.5t48 -155.5q0 -111 -48 -160 t-165 -49t-166 49t-49 160z" />
<glyph unicode="&#x152;" horiz-adv-x="2387" d="M61 756q0 385 202 582.5t587 197.5q82 0 146.5 -5t125.5 -15h1174v-353h-713v-227h647v-348h-647v-236h733v-352h-1194q-66 -10 -131 -15t-141 -5q-383 0 -586 197.5t-203 578.5zM530 756q0 -125 15.5 -205t53.5 -125t102.5 -62.5t162.5 -17.5q78 0 141.5 2t116.5 10v799 q-53 6 -115.5 9t-144.5 3q-96 0 -160.5 -18t-102.5 -64.5t-53.5 -127t-15.5 -203.5z" />
<glyph unicode="&#x153;" horiz-adv-x="2103" d="M57 553q0 281 164 427t479 146q129 0 229.5 -26.5t170.5 -77.5l20 2q137 100 391 100q530 0 531 -493q0 -53 -5 -98.5t-18 -90.5h-680q4 -41 16.5 -66.5t36 -38.5t60.5 -17.5t90 -4.5q49 0 108.5 3.5t120 9.5t117 14t99.5 18l10 -315q-106 -29 -236.5 -46t-257.5 -17 q-252 0 -385 98h-20q-70 -49 -170.5 -76t-227.5 -27q-315 0 -479 147.5t-164 428.5zM508 553q0 -74 9 -120t30.5 -71.5t59.5 -36t93 -10.5t92 9.5t58.5 36t31 72.5t9.5 120t-9.5 119t-31 71.5t-58 35.5t-92.5 9q-55 0 -93 -9t-59.5 -35.5t-30.5 -71.5t-9 -119zM1335 659h314 q-4 86 -38 123t-120 37q-78 0 -113 -33.5t-43 -126.5z" />
<glyph unicode="&#x178;" horiz-adv-x="1564" d="M-27 1516h502l232 -465l65 -168h21l63 168l234 465h497l-571 -1031v-485h-461v471zM227 1862q0 123 55.5 177t184.5 54q131 0 184.5 -57.5t53.5 -173.5q0 -119 -53.5 -176.5t-184.5 -57.5q-129 0 -184.5 55.5t-55.5 178.5zM856 1862q0 123 54.5 177t185.5 54t184 -57.5 t53 -173.5q0 -119 -53 -176.5t-184 -57.5t-185.5 55.5t-54.5 178.5z" />
<glyph unicode="&#x2c6;" horiz-adv-x="1056" d="M72 1227v291l444 163l453 -163v-291l-449 162z" />
<glyph unicode="&#x2dc;" horiz-adv-x="1107" d="M31 1352q74 147 172 218.5t188 71.5q55 0 109.5 -13t109 -28.5t108.5 -28.5t109 -13q45 0 89.5 14t105.5 61l53 -78q-78 -147 -175 -218.5t-185 -71.5q-55 0 -109.5 13t-109 28.5t-108.5 29t-109 13.5q-47 0 -92.5 -14.5t-102.5 -61.5z" />
<glyph unicode="&#x2000;" horiz-adv-x="1046" />
<glyph unicode="&#x2001;" horiz-adv-x="2093" />
<glyph unicode="&#x2002;" horiz-adv-x="1046" />
<glyph unicode="&#x2003;" horiz-adv-x="2093" />
<glyph unicode="&#x2004;" horiz-adv-x="697" />
<glyph unicode="&#x2005;" horiz-adv-x="523" />
<glyph unicode="&#x2006;" horiz-adv-x="348" />
<glyph unicode="&#x2007;" horiz-adv-x="348" />
<glyph unicode="&#x2008;" horiz-adv-x="261" />
<glyph unicode="&#x2009;" horiz-adv-x="418" />
<glyph unicode="&#x200a;" horiz-adv-x="116" />
<glyph unicode="&#x2010;" horiz-adv-x="1130" d="M100 412v323h930v-323h-930z" />
<glyph unicode="&#x2011;" horiz-adv-x="1130" d="M100 412v323h930v-323h-930z" />
<glyph unicode="&#x2012;" horiz-adv-x="1130" d="M100 412v323h930v-323h-930z" />
<glyph unicode="&#x2013;" horiz-adv-x="1437" d="M100 412v323h1237v-323h-1237z" />
<glyph unicode="&#x2014;" horiz-adv-x="1787" d="M100 412v323h1588v-323h-1588z" />
<glyph unicode="&#x2018;" horiz-adv-x="555" d="M66 1126q0 121 48 263.5t142 267.5l242 -4q-37 -70 -57.5 -174.5t-20.5 -214.5q0 -74 10 -136.5t39 -128.5l-383 -6q-8 29 -14 64t-6 69z" />
<glyph unicode="&#x2019;" horiz-adv-x="546" d="M61 997q39 70 58.5 174.5t19.5 214.5q0 74 -10 136.5t-39 128.5l383 6q8 -29 14.5 -63.5t6.5 -69.5q0 -121 -48.5 -263.5t-142.5 -267.5z" />
<glyph unicode="&#x201a;" horiz-adv-x="563" d="M45 -350q39 70 58.5 174t19.5 215q0 74 -10.5 136.5t-38.5 127.5l383 6q8 -29 14 -63.5t6 -69.5q0 -121 -48 -263t-142 -267z" />
<glyph unicode="&#x201c;" horiz-adv-x="1064" d="M66 1126q0 121 48 263.5t142 267.5l242 -4q-37 -70 -57.5 -174.5t-20.5 -214.5q0 -74 10 -136.5t39 -128.5l-383 -6q-8 29 -14 64t-6 69zM578 1126q0 121 48 263.5t142 267.5l242 -4q-37 -70 -57.5 -174.5t-20.5 -214.5q0 -74 10 -136.5t39 -128.5l-383 -6q-8 29 -14 64 t-6 69z" />
<glyph unicode="&#x201d;" horiz-adv-x="1058" d="M61 997q39 70 58.5 174.5t19.5 214.5q0 74 -10 136.5t-39 128.5l383 6q8 -29 14.5 -63.5t6.5 -69.5q0 -121 -48.5 -263.5t-142.5 -267.5zM573 997q39 70 58.5 174.5t19.5 214.5q0 74 -10 136.5t-39 128.5l383 6q8 -29 14.5 -63.5t6.5 -69.5q0 -121 -48.5 -263.5 t-142.5 -267.5z" />
<glyph unicode="&#x201e;" horiz-adv-x="1075" d="M45 -350q39 70 58.5 174t19.5 215q0 74 -10.5 136.5t-38.5 127.5l383 6q8 -29 14 -63.5t6 -69.5q0 -121 -48 -263t-142 -267zM557 -350q39 70 58.5 174t19.5 215q0 74 -10.5 136.5t-38.5 127.5l383 6q8 -29 14 -63.5t6 -69.5q0 -121 -48 -263t-142 -267z" />
<glyph unicode="&#x2022;" horiz-adv-x="813" d="M111 758q0 139 79.5 212.5t215.5 73.5q137 0 216.5 -73.5t79.5 -212.5q0 -137 -79.5 -211t-216.5 -74q-135 0 -215 74t-80 211z" />
<glyph unicode="&#x2026;" horiz-adv-x="1964" d="M63 209q0 119 66 173t180 54q115 0 180.5 -54t65.5 -173t-65.5 -174t-180.5 -55t-180.5 55t-65.5 174zM739 209q0 119 65.5 173t180.5 54t180.5 -54t65.5 -173t-65.5 -174t-180.5 -55t-180.5 55t-65.5 174zM1409 209q0 119 65.5 173t180.5 54t180.5 -54t65.5 -173 t-65.5 -174t-180.5 -55t-180.5 55t-65.5 174z" />
<glyph unicode="&#x202f;" horiz-adv-x="418" />
<glyph unicode="&#x2039;" horiz-adv-x="921" d="M49 549v8l369 487h450l-368 -487v-8l368 -488h-450z" />
<glyph unicode="&#x203a;" horiz-adv-x="921" d="M55 61l367 488v8l-367 487h451l366 -487v-8l-366 -488h-451z" />
<glyph unicode="&#x205f;" horiz-adv-x="523" />
<glyph unicode="&#x20ac;" horiz-adv-x="1507" d="M61 463v244h144v102h-144v244h181q66 238 259 360.5t531 122.5q137 0 239.5 -16.5t164.5 -28.5l-101 -358q-16 2 -42.5 6t-56.5 7t-59.5 5t-54.5 2q-172 0 -265 -20.5t-136 -79.5h573l-41 -244h-585v-102h561l-41 -244h-469q43 -61 138 -82t271 -21q84 0 157 7.5 t151 27.5v-372q-63 -20 -166 -31.5t-213 -11.5q-354 0 -553 122.5t-264 360.5h-179z" />
<glyph unicode="&#x2122;" horiz-adv-x="2140" d="M55 1298v218h815v-218h-268v-643h-278v643h-269zM956 655v861h365l164 -480l166 480h364v-861h-252v527l-170 -492h-215l-170 492v-527h-252z" />
<glyph unicode="&#x25fc;" horiz-adv-x="1105" d="M0 0v1106h1106v-1106h-1106z" />
</font>
</defs>
</svg>
